<?xml version="1.0" standalone="no"?>
<!DOCTYPE svg PUBLIC "-//W3C//DTD SVG 1.1//EN" "http://www.w3.org/Graphics/SVG/1.1/DTD/svg11.dtd" >
<svg>
<metadata>
Created by FontForge 20120731 at Sun Sep  2 15:33:27 2018
 By www
(URW)++,Copyright 2006 by (URW)++ Design &#38; Development
</metadata>
<defs>
<font id="FuturaNo2DW03-Regular" horiz-adv-x="1024" vert-adv-y="2048" >
  <font-face 
    font-family="FuturaNo2DW03-Regular"
    font-weight="400"
    font-stretch="normal"
    units-per-em="2048"
    panose-1="1 0 0 0 0 0 0 0 0 0"
    ascent="1638"
    descent="-410"
    x-height="853"
    cap-height="1365"
    bbox="-232 -512 2028 1837"
    underline-thickness="102"
    underline-position="-256"
    unicode-range="U+0020-FB04"
  />
<missing-glyph horiz-adv-x="512" vert-adv-y="2457" 
d="M51 0v1365h410v-1365h-410zM410 51v1263h-308v-1263h308z" />
    <glyph glyph-name=".notdef" horiz-adv-x="512" vert-adv-y="2457" 
d="M51 0v1365h410v-1365h-410zM410 51v1263h-308v-1263h308z" />
    <glyph glyph-name="glyph1" horiz-adv-x="0" vert-adv-y="0" 
 />
    <glyph glyph-name="glyph2" horiz-adv-x="512" vert-adv-y="2457" 
 />
    <glyph glyph-name="space" unicode=" " horiz-adv-x="512" vert-adv-y="2457" 
 />
    <glyph glyph-name="exclam" unicode="!" horiz-adv-x="476" vert-adv-y="2457" 
d="M175 345v1020h126v-1020h-126zM238 192q41 0 71 -29t30 -72q0 -41 -28 -70q-30 -31 -73 -31q-41 0 -70 28q-31 30 -31 74q0 41 29 69q30 31 72 31z" />
    <glyph glyph-name="quotedbl" unicode="&#x22;" horiz-adv-x="546" vert-adv-y="2457" 
d="M98 874l-30 491h137l-39 -491h-68zM371 874l-30 491h137l-39 -491h-68z" />
    <glyph glyph-name="numbersign" unicode="#" horiz-adv-x="915" vert-adv-y="2457" 
d="M-1 349l19 96h191l92 475h-191l19 96h191l68 349h102l-68 -349h201l67 349h103l-68 -349h191l-18 -96h-192l-92 -475h191l-19 -96h-191l-68 -349h-102l68 349h-200l-68 -349h-103l68 349h-191zM604 920h-200l-93 -475h201z" />
    <glyph glyph-name="dollar" unicode="$" horiz-adv-x="915" vert-adv-y="2457" 
d="M398 -20q-137 14 -219 101q-63 66 -103 180l107 54q47 -121 91 -165q53 -51 124 -61v597q-81 38 -135 80q-146 113 -146 291q0 145 95 238q72 70 186 91v177h108v-177q201 -20 294 -237l-108 -54q-39 93 -90 135q-42 35 -96 46v-506q115 -67 158 -103q149 -125 149 -306
q0 -160 -95 -268q-77 -88 -212 -113v-205h-108v205zM398 828v448q-48 -10 -77 -36q-78 -71 -78 -177q0 -156 155 -235zM506 626v-537q74 22 117 71q63 70 63 182q0 143 -106 232q-27 22 -74 52z" />
    <glyph glyph-name="percent" unicode="%" horiz-adv-x="1476" vert-adv-y="2457" 
d="M300 1377q136 0 200 -131q53 -107 53 -292q0 -220 -81 -333q-64 -87 -173 -87q-251 0 -251 424q0 207 72 319q65 100 180 100zM302 1299q-162 0 -162 -348q0 -339 159 -339q81 0 119 83q43 93 43 248q0 356 -159 356zM1106 1367l-629 -1365h-108l625 1365h112zM1174 831
q136 0 200 -131q53 -108 53 -292q0 -220 -81 -333q-64 -87 -172 -87q-252 0 -252 424q0 207 72 319q65 100 180 100zM1176 753q-162 0 -162 -348q0 -339 159 -339q81 0 119 83q43 94 43 248q0 356 -159 356z" />
    <glyph glyph-name="ampersand" unicode="&#x26;" horiz-adv-x="1182" vert-adv-y="2457" 
d="M1002 545l94 -67q-85 -133 -152 -211l210 -267h-153l-138 174q-70 -64 -131 -105q-129 -86 -269 -86q-153 0 -260 94q-67 58 -101 147q-27 70 -27 143q0 184 165 332q44 40 130 101q-57 77 -87 129q-55 98 -55 189q0 102 67 173q77 82 201 82q136 0 217 -93
q61 -71 61 -168q0 -105 -74 -195q-50 -60 -160 -140l334 -421q51 60 128 189zM474 865q176 125 176 240q0 64 -39 110q-43 51 -114 51q-62 0 -105 -40q-44 -42 -44 -109q0 -64 42 -140q26 -45 56 -80q27 -33 28 -32zM792 264l-350 446q-72 -44 -141 -113
q-100 -102 -100 -227q0 -118 83 -202q77 -78 180 -78q87 0 192 61q72 41 136 113z" />
    <glyph glyph-name="quotesingle" unicode="'" horiz-adv-x="273" vert-adv-y="2457" 
d="M98 874l-30 491h137l-39 -491h-68z" />
    <glyph glyph-name="parenleft" unicode="(" horiz-adv-x="550" vert-adv-y="2457" 
d="M394 -382q-91 179 -146 382q-90 331 -90 609q0 290 98 639q48 167 127 350l70 -36q-75 -238 -111 -397q-60 -264 -60 -537q0 -528 180 -972z" />
    <glyph glyph-name="parenright" unicode=")" horiz-adv-x="550" vert-adv-y="2457" 
d="M157 -382l-68 38q180 442 180 972q0 285 -68 570q-35 149 -103 364l70 36q88 -204 138 -394q87 -326 87 -595q0 -304 -104 -657q-50 -171 -132 -334z" />
    <glyph glyph-name="asterisk" unicode="*" horiz-adv-x="659" vert-adv-y="2457" 
d="M301 1151l-10 214h76l-9 -214l202 71l23 -73l-206 -52l134 -173l-61 -45l-122 183l-118 -180l-62 45l134 170l-207 56l24 72z" />
    <glyph glyph-name="plus" unicode="+" horiz-adv-x="915" vert-adv-y="2457" 
d="M399 625h-338v116h338v338h116v-338h338v-116h-338v-338h-116v338z" />
    <glyph glyph-name="comma" unicode="," horiz-adv-x="410" vert-adv-y="2457" 
d="M-1 -291l177 475l121 -45l-220 -465z" />
    <glyph glyph-name="hyphen" unicode="-" horiz-adv-x="363" vert-adv-y="2457" 
d="M0 373v106h363v-106h-363z" />
    <glyph glyph-name="period" unicode="." horiz-adv-x="410" vert-adv-y="2457" 
d="M204 180q40 0 68 -27q30 -29 30 -71q0 -39 -28 -67q-28 -29 -69 -29q-39 0 -68 28q-29 29 -29 71q0 38 26 65q29 30 70 30z" />
    <glyph glyph-name="slash" unicode="/" horiz-adv-x="870" vert-adv-y="2457" 
d="M-41 -382l779 1918h111l-778 -1918h-112z" />
    <glyph glyph-name="zero" unicode="0" horiz-adv-x="915" vert-adv-y="2457" 
d="M457 1385q211 0 312 -216q84 -180 84 -489q0 -369 -129 -556q-98 -144 -269 -144t-271 143q-123 176 -123 565q0 346 115 532q101 165 281 165zM460 1276q-127 0 -199 -139q-32 -64 -52 -193q-21 -131 -21 -270q0 -178 32 -324q57 -261 235 -261q136 0 201 148
q70 160 70 423q0 350 -81 492q-72 124 -185 124z" />
    <glyph glyph-name="one" unicode="1" horiz-adv-x="915" vert-adv-y="2457" 
d="M403 0v1256h-191l54 109h260v-1365h-123z" />
    <glyph glyph-name="two" unicode="2" horiz-adv-x="915" vert-adv-y="2457" 
d="M86 0l412 574q73 101 120 186q71 127 71 259q0 117 -67 192q-59 66 -162 66q-107 0 -175 -73q-57 -60 -68 -171q-2 -24 -4 -75h-127q2 153 45 241q93 187 325 187q173 0 272 -110q88 -97 88 -259q0 -212 -179 -462l-320 -446h485v-109h-716z" />
    <glyph glyph-name="three" unicode="3" horiz-adv-x="915" vert-adv-y="2457" 
d="M62 322h127q7 -91 49 -144q71 -89 201 -89q132 0 208 92q57 70 57 178q0 124 -68 205q-50 60 -137 76q-40 7 -108 10v110h34q126 1 188 70q67 74 67 197q0 131 -78 198q-59 52 -152 52q-205 0 -229 -219h-127q6 111 53 186q89 142 300 142q171 0 265 -93q95 -95 95 -257
q0 -245 -215 -332q239 -84 239 -334q0 -207 -126 -308q-102 -82 -270 -82q-201 0 -302 125q-67 83 -71 217z" />
    <glyph glyph-name="four" unicode="4" horiz-adv-x="915" vert-adv-y="2457" 
d="M44 307l697 1140v-1031h135v-109h-135v-307h-123v307h-574zM255 416h354v352q0 127 9 275q-37 -77 -103 -191l-48 -84z" />
    <glyph glyph-name="five" unicode="5" horiz-adv-x="915" vert-adv-y="2457" 
d="M57 176l85 76q50 -66 91 -101q75 -63 175 -63q156 0 243 128q60 87 60 209q0 178 -119 270q-84 64 -208 64q-126 0 -264 -83l145 689h554v-109h-452l-87 -408q74 20 139 20q129 0 226 -62q101 -64 150 -173q43 -96 43 -205q0 -192 -116 -316q-125 -133 -317 -133
q-220 0 -348 197z" />
    <glyph glyph-name="six" unicode="6" horiz-adv-x="915" vert-adv-y="2457" 
d="M642 1399l100 -73l-411 -573q74 32 144 32q189 0 302 -143q84 -105 84 -257q0 -186 -117 -298q-111 -107 -284 -107q-190 0 -304 126q-101 112 -101 286q0 138 73 274q26 47 112 168zM455 676q-140 0 -214 -103q-59 -82 -59 -185q0 -146 96 -229q80 -70 183 -70
q134 0 213 103q60 78 60 192q0 121 -70 204q-75 88 -209 88z" />
    <glyph glyph-name="seven" unicode="7" horiz-adv-x="915" vert-adv-y="2457" 
d="M82 0l639 1256h-627v109h824l-698 -1365h-138z" />
    <glyph glyph-name="eight" unicode="8" horiz-adv-x="915" vert-adv-y="2457" 
d="M638 712q194 -103 194 -334q0 -175 -95 -280q-52 -57 -132 -89q-72 -29 -147 -29q-105 0 -200 54q-176 100 -176 340q0 170 93 265q36 37 99 73q-58 46 -85 83q-65 90 -65 225q0 165 100 265q46 46 115 74q64 27 122 27q89 0 177 -54q154 -94 154 -318q0 -147 -75 -232
q-25 -29 -79 -70zM455 1277q-81 0 -138 -63q-66 -72 -66 -193q0 -130 66 -200q58 -60 142 -60q85 0 142 64q64 71 64 188q0 116 -55 188q-59 76 -155 76zM456 649q-104 0 -171 -66q-76 -74 -76 -210q0 -128 67 -206t175 -78q116 0 188 83q66 77 66 198q0 132 -70 206
q-67 73 -179 73z" />
    <glyph glyph-name="nine" unicode="9" horiz-adv-x="915" vert-adv-y="2457" 
d="M254 -34l-101 76l422 564q-72 -27 -135 -27q-182 0 -291 125q-94 109 -94 275q0 178 110 291q113 115 290 115q207 0 322 -148q84 -108 84 -256q0 -129 -64 -257q-39 -77 -118 -184zM457 1276q-141 0 -220 -115q-55 -79 -55 -180q0 -145 88 -229q66 -64 180 -64
q159 0 227 98q57 81 57 188q0 125 -73 209q-81 93 -204 93z" />
    <glyph glyph-name="colon" unicode=":" horiz-adv-x="410" vert-adv-y="2457" 
d="M204 180q40 0 68 -27q30 -29 30 -71q0 -39 -28 -67q-28 -29 -69 -29q-39 0 -68 28q-29 29 -29 71q0 38 26 65q29 30 70 30zM204 531q40 0 68 -27q30 -29 30 -71q0 -39 -28 -67q-28 -29 -69 -29q-39 0 -68 28q-29 29 -29 71q0 38 26 65q29 30 70 30z" />
    <glyph glyph-name="semicolon" unicode=";" horiz-adv-x="410" vert-adv-y="2457" 
d="M203 531q40 0 68 -27q30 -29 30 -71q0 -39 -28 -67q-28 -29 -69 -29q-39 0 -67 28q-30 29 -30 71q0 38 26 65q29 30 70 30zM1 -291l177 475l121 -45l-220 -465z" />
    <glyph glyph-name="less" unicode="&#x3c;" vert-adv-y="2457" 
d="M955 1144v-116l-761 -341l761 -340v-116l-887 405v103z" />
    <glyph glyph-name="equal" unicode="=" horiz-adv-x="915" vert-adv-y="2457" 
d="M61 816v116h792v-116h-792zM61 433v116h792v-116h-792z" />
    <glyph glyph-name="greater" unicode="&#x3e;" vert-adv-y="2457" 
d="M69 231v116l761 340l-761 341v116l887 -405v-104z" />
    <glyph glyph-name="question" unicode="?" horiz-adv-x="739" vert-adv-y="2457" 
d="M214 1096h-118q2 98 28 156q30 70 103 108q63 32 136 32q120 0 196 -77q71 -72 71 -188q0 -135 -104 -239q-28 -29 -110 -96q-91 -74 -122 -111q-45 -56 -45 -121q0 -52 28 -83q30 -33 75 -33q102 0 105 140h117v-19q0 -63 -25 -113q-59 -116 -194 -116q-115 0 -178 85
q-47 63 -47 151q0 112 80 202q21 23 161 135q57 46 93 94q41 57 41 130q0 69 -43 112q-38 39 -100 39q-86 0 -122 -67q-16 -29 -26 -121zM364 193q41 0 72 -29q30 -30 30 -73q0 -42 -30 -71q-29 -28 -70 -28t-70 28q-31 29 -31 73q0 39 27 68q29 32 72 32z" />
    <glyph glyph-name="at" unicode="@" horiz-adv-x="1434" vert-adv-y="2457" 
d="M1078 1022l-54 -446q-6 -53 -6 -91q0 -72 60 -72q31 0 58 17q56 37 90 101q56 109 56 236q0 231 -156 373q-153 139 -379 139q-249 0 -418 -174q-167 -173 -167 -424q0 -224 133 -390q167 -208 465 -208q159 0 298 55q56 22 141 71l41 -102q-232 -127 -478 -127
q-267 0 -451 139q-123 92 -194 233q-78 153 -78 329q0 197 94 359q90 154 245 245q168 100 369 100q199 0 359 -96q134 -81 210 -211q79 -137 79 -300q0 -158 -74 -293q-60 -110 -148 -155q-57 -29 -114 -29q-56 0 -99 33q-27 21 -48 77q-28 -28 -39 -37q-84 -77 -199 -77
q-142 0 -233 101q-92 100 -92 255q0 177 116 288q101 97 239 97q135 0 214 -86q8 -8 30 -37l13 107h117zM707 911q-98 0 -162 -75t-64 -192q0 -101 51 -167t132 -66q106 0 182 87q42 47 63 114q14 46 14 86q0 98 -65 155q-65 58 -151 58z" />
    <glyph glyph-name="A" unicode="A" horiz-adv-x="1181" vert-adv-y="2457" 
d="M589 1410l592 -1410h-130l-172 410h-572l-170 -410h-130zM834 516l-121 292q-89 212 -123 308q-23 -72 -106 -278l-133 -322h483z" />
    <glyph glyph-name="B" unicode="B" horiz-adv-x="904" vert-adv-y="2457" 
d="M130 0v1365h221q173 0 262 -51q62 -36 99 -90q64 -91 64 -218q0 -147 -98 -238q-31 -28 -75 -48q74 -19 134 -81q99 -103 99 -253q0 -164 -93 -269q-89 -100 -239 -113q-46 -4 -132 -4h-242zM253 762h85q116 0 170 20q69 25 106 88q35 61 35 137q0 97 -56 166
q-68 83 -246 83h-94v-494zM253 109h174q109 0 175 47q107 76 107 225q0 138 -91 213q-71 59 -199 59h-166v-544z" />
    <glyph glyph-name="C" unicode="C" horiz-adv-x="1204" vert-adv-y="2457" 
d="M1122 55q-155 -75 -340 -75q-338 0 -544 244q-170 201 -170 456q0 181 91 344q102 184 280 279q156 83 346 83q180 0 337 -76v-135q-165 102 -341 102q-162 0 -297 -80q-140 -82 -216 -229q-68 -131 -68 -286q0 -265 187 -438q167 -155 401 -155q167 0 334 104v-138z" />
    <glyph glyph-name="D" unicode="D" horiz-adv-x="1198" vert-adv-y="2457" 
d="M130 0v1365h196q128 0 200 -7q207 -21 336 -116q139 -102 210 -265q58 -133 58 -292q0 -250 -140 -435q-157 -207 -394 -238q-96 -12 -198 -12h-268zM253 109h139q125 0 184 9q201 29 320 200q101 146 101 362q0 232 -118 383q-125 161 -369 186q-73 7 -183 7h-74v-1147z
" />
    <glyph glyph-name="E" unicode="E" horiz-adv-x="874" vert-adv-y="2457" 
d="M130 0v1365h662v-109h-539v-468h539v-109h-539v-570h539v-109h-662z" />
    <glyph glyph-name="F" unicode="F" horiz-adv-x="842" vert-adv-y="2457" 
d="M130 0v1365h651v-109h-528v-468h528v-109h-528v-679h-123z" />
    <glyph glyph-name="G" unicode="G" horiz-adv-x="1493" vert-adv-y="2457" 
d="M1336 1138l-81 -94q-64 86 -148 139q-149 93 -322 93q-300 0 -467 -228q-118 -160 -118 -369q0 -249 161 -411q93 -94 220 -141q104 -38 215 -38q184 0 318 101q138 105 178 296q8 36 15 105h-368v109h486v-42q0 -193 -80 -353q-76 -155 -224 -240q-146 -85 -334 -85
q-243 0 -428 130q-139 98 -217 256q-74 149 -74 315q0 162 69 306q93 194 275 301q166 97 371 97q334 0 553 -247z" />
    <glyph glyph-name="H" unicode="H" horiz-adv-x="1256" vert-adv-y="2457" 
d="M130 0v1365h123v-566h751v566h123v-1365h-123v690h-751v-690h-123z" />
    <glyph glyph-name="I" unicode="I" horiz-adv-x="382" vert-adv-y="2457" 
d="M130 0v1365h123v-1365h-123z" />
    <glyph glyph-name="J" unicode="J" horiz-adv-x="635" vert-adv-y="2457" 
d="M-15 96l80 72q37 -31 58 -45q48 -31 100 -31q72 0 123 53q38 41 46 132q3 33 3 78v1010h123v-1012q0 -52 -13 -126q-14 -82 -38 -120q-36 -60 -113 -95q-61 -29 -129 -29q-139 0 -240 113z" />
    <glyph glyph-name="K" unicode="K" horiz-adv-x="963" vert-adv-y="2457" 
d="M130 0v1365h123v-608l498 608h162l-510 -619l546 -746h-150l-546 746v-746h-123z" />
    <glyph glyph-name="L" unicode="L" horiz-adv-x="703" vert-adv-y="2457" 
d="M130 0v1365h123v-1256h423v-109h-546z" />
    <glyph glyph-name="M" unicode="M" horiz-adv-x="1533" vert-adv-y="2457" 
d="M48 0l231 1406l418 -972q36 -83 75 -188q41 114 69 181l415 979l229 -1406h-124l-133 830q-4 27 -21 178q-19 -61 -48 -130l-387 -919l-394 917q-26 63 -50 132q-2 -17 -5 -65q-3 -36 -14 -109l-134 -834h-127z" />
    <glyph glyph-name="N" unicode="N" horiz-adv-x="1406" vert-adv-y="2457" 
d="M130 0v1406l965 -1075q47 -52 68 -90q-9 84 -9 203v921h123v-1420l-947 1062q-51 59 -85 108q9 -46 9 -108l-1 -62v-945h-123z" />
    <glyph glyph-name="O" unicode="O" horiz-adv-x="1570" vert-adv-y="2457" 
d="M782 1385q302 0 510 -207q93 -91 146 -208q64 -140 64 -294q0 -286 -205 -489q-209 -207 -517 -207q-312 0 -515 213q-197 206 -197 496q0 140 67 289q92 204 288 316q160 91 359 91zM782 1276q-248 0 -415 -169q-80 -81 -124 -193q-43 -109 -43 -222q0 -248 151 -415
q79 -87 191 -137q115 -51 241 -51q245 0 422 183q165 170 165 401q0 166 -84 312q-84 147 -229 225q-124 66 -275 66z" />
    <glyph glyph-name="P" unicode="P" horiz-adv-x="872" vert-adv-y="2457" 
d="M253 606v-606h-123v1365h187q160 0 219 -9q149 -23 221 -134q61 -94 61 -234q0 -157 -75 -255q-81 -105 -230 -120q-75 -7 -169 -7h-91zM253 1256v-541h100q94 0 129 4q103 13 159 88q50 65 50 179q0 182 -119 243q-43 22 -119 26q-17 1 -114 1h-86z" />
    <glyph glyph-name="Q" unicode="Q" horiz-adv-x="1570" vert-adv-y="2457" 
d="M1151 75q-162 -96 -374 -96q-309 0 -512 213q-98 102 -149 236q-48 123 -48 251q0 206 116 389q108 170 291 253q141 64 307 64q303 0 510 -207q210 -209 210 -503q0 -284 -205 -489q-22 -22 -47 -43l235 -239h-166zM1068 161l-286 297h164l220 -227q204 182 204 441
q0 166 -84 313q-84 148 -229 225q-124 66 -275 66q-249 0 -415 -169q-167 -170 -167 -424q0 -240 151 -407q79 -88 191 -137q115 -51 241 -51q153 0 285 73z" />
    <glyph glyph-name="R" unicode="R" horiz-adv-x="896" vert-adv-y="2457" 
d="M130 1365h135q165 0 217 -7q153 -21 229 -134q65 -97 65 -224q0 -123 -62 -216q-82 -123 -251 -142l386 -642h-142l-383 642h-71v-642h-123v1365zM253 1256v-505h86q83 0 117 4q98 12 149 83q44 63 44 161q0 190 -144 240q-49 17 -175 17h-77z" />
    <glyph glyph-name="S" unicode="S" horiz-adv-x="833" vert-adv-y="2457" 
d="M41 260l107 53q30 -75 52 -112q68 -113 204 -113q121 0 195 92q52 64 52 165q0 114 -68 192q-44 50 -167 114q-160 84 -217 135q-57 50 -89 127q-28 66 -28 140q0 177 135 270q88 62 215 62q175 0 271 -125q34 -44 62 -112l-108 -54q-25 57 -50 91q-68 91 -182 91
q-94 0 -158 -64q-58 -58 -58 -151q0 -102 73 -178q42 -44 152 -100q167 -85 233 -153q111 -112 111 -275q0 -176 -123 -289q-95 -87 -251 -87q-154 0 -238 77q-78 72 -125 204z" />
    <glyph glyph-name="T" unicode="T" horiz-adv-x="819" vert-adv-y="2457" 
d="M348 0v1256h-341v109h806v-109h-342v-1256h-123z" />
    <glyph glyph-name="U" unicode="U" horiz-adv-x="1158" vert-adv-y="2457" 
d="M116 1365h123v-839q0 -123 11 -182q25 -130 126 -201q77 -54 195 -54q222 0 305 162q43 85 43 274v840h123v-838q0 -135 -16 -214q-34 -169 -172 -262q-106 -71 -280 -71q-279 0 -395 205q-63 111 -63 341v839z" />
    <glyph glyph-name="V" unicode="V" horiz-adv-x="1065" vert-adv-y="2457" 
d="M530 -41l-523 1406h132l335 -911q50 -136 71 -200q31 107 64 199l324 912h132l-505 -1406h-30z" />
    <glyph glyph-name="W" unicode="W" horiz-adv-x="1850" vert-adv-y="2457" 
d="M501 -41l-494 1406h132l284 -811q55 -158 93 -290q37 132 89 275l322 886l316 -910q11 -32 36 -112q16 -50 44 -139q32 119 86 263l309 838h133l-521 -1406h-26l-337 983q-5 15 -33 110l-10 33q-16 -64 -42 -136l-356 -990h-25z" />
    <glyph glyph-name="X" unicode="X" horiz-adv-x="943" vert-adv-y="2457" 
d="M27 0l376 685l-376 680h137l271 -497l16 -26q15 -26 22 -38l7 13l25 49l275 499h137l-374 -680l379 -685h-137l-271 495q-5 10 -16 28q-14 24 -26 45q-8 -16 -23 -44l-16 -31l-269 -493h-137z" />
    <glyph glyph-name="Y" unicode="Y" horiz-adv-x="967" vert-adv-y="2457" 
d="M416 0v570l-423 795h136l356 -658l359 658h137l-442 -795v-570h-123z" />
    <glyph glyph-name="Z" unicode="Z" horiz-adv-x="965" vert-adv-y="2457" 
d="M14 0l703 1256h-617v109h815l-704 -1256h718v-109h-915z" />
    <glyph glyph-name="bracketleft" unicode="[" horiz-adv-x="550" vert-adv-y="2457" 
d="M130 -382v1918h393v-109h-277v-1700h277v-109h-393z" />
    <glyph glyph-name="backslash" unicode="\" horiz-adv-x="918" vert-adv-y="2457" 
d="M945 -382h-111l-779 1918h112z" />
    <glyph glyph-name="bracketright" unicode="]" horiz-adv-x="550" vert-adv-y="2457" 
d="M420 -382h-393v109h277v1700h-277v109h393v-1918z" />
    <glyph glyph-name="asciicircum" unicode="^" vert-adv-y="2457" 
d="M192 765h-128l372 603h153l372 -603h-130l-320 511z" />
    <glyph glyph-name="underscore" unicode="_" vert-adv-y="2457" 
d="M0 -144h1024v-109h-1024v109z" />
    <glyph glyph-name="grave" unicode="`" vert-adv-y="2457" 
d="M535 967l-180 237l96 52l135 -259z" />
    <glyph glyph-name="a" unicode="a" horiz-adv-x="976" vert-adv-y="2457" 
d="M761 720v133h115v-853h-115v133q-117 -147 -299 -147q-185 0 -300 135q-99 116 -99 298q0 197 114 325q110 123 285 123q183 0 299 -147zM476 764q-155 0 -238 -126q-58 -89 -58 -209q0 -180 104 -270q80 -70 188 -70q124 0 209 85q81 82 81 257q0 152 -72 238
q-80 95 -214 95z" />
    <glyph glyph-name="b" unicode="b" horiz-adv-x="976" vert-adv-y="2457" 
d="M100 0v1536h115v-820q115 151 296 151q198 0 310 -152q92 -123 92 -289q0 -198 -123 -327q-108 -113 -282 -113q-125 0 -223 75q-33 26 -70 66v-127h-115zM501 763q-161 0 -238 -129q-48 -79 -48 -204q0 -175 83 -257q83 -84 203 -84q149 0 231 114q64 87 64 227
q0 146 -78 238q-80 95 -217 95z" />
    <glyph glyph-name="c" unicode="c" horiz-adv-x="819" vert-adv-y="2457" 
d="M764 791v-144q-51 49 -88 72q-73 44 -163 44q-155 0 -252 -115q-80 -94 -80 -224q0 -160 113 -257q88 -77 214 -77q148 0 256 123v-144q-108 -83 -261 -83q-194 0 -319 133q-120 128 -120 306q0 200 151 331q126 111 301 111q97 0 187 -43q23 -12 61 -33z" />
    <glyph glyph-name="d" unicode="d" horiz-adv-x="976" vert-adv-y="2457" 
d="M876 0h-115v127q-58 -61 -91 -84q-82 -57 -205 -57q-201 0 -314 148q-88 116 -88 291q0 202 120 322q119 120 275 120q121 0 225 -74q42 -30 78 -77v820h115v-1536zM478 763q-154 0 -243 -129q-55 -79 -55 -202q0 -164 81 -252q84 -91 213 -91q141 0 225 106
q62 78 62 221q0 159 -69 244q-46 57 -113 83q-52 20 -101 20z" />
    <glyph glyph-name="e" unicode="e" horiz-adv-x="897" vert-adv-y="2457" 
d="M832 415h-651q2 -111 40 -184q74 -142 237 -142q156 0 253 162l93 -51q-128 -214 -348 -214q-201 0 -311 155q-81 116 -81 288q0 185 97 302q113 136 298 136q149 0 251 -96q97 -92 117 -248q5 -41 5 -108zM181 513h531q-5 78 -39 133q-33 51 -89 83q-61 34 -134 34
q-156 0 -234 -141q-28 -50 -35 -109z" />
    <glyph glyph-name="f" unicode="f" horiz-adv-x="497" vert-adv-y="2457" 
d="M164 0v755h-130v98h130v415q0 92 9 130q38 155 215 155q71 0 147 -38v-125q-69 59 -139 59q-65 0 -94 -50q-23 -39 -23 -135v-411h256v-98h-256v-755h-115z" />
    <glyph glyph-name="g" unicode="g" horiz-adv-x="976" vert-adv-y="2457" 
d="M95 -76h113q15 -87 63 -134q78 -75 214 -75q175 0 242 126q34 65 34 222v82q-102 -159 -293 -159q-184 0 -298 132q-107 125 -107 311q0 136 65 250q57 100 162 151q77 37 172 37q127 0 225 -70q32 -23 74 -66v122h115v-755q0 -141 -10 -195q-26 -140 -125 -216
q-98 -76 -263 -76q-238 0 -332 150q-41 66 -51 163zM477 763q-124 0 -213 -93q-83 -86 -83 -232q0 -177 101 -271q84 -77 196 -77q122 0 198 79q85 89 85 271q0 115 -46 192q-39 65 -113 102q-61 29 -125 29z" />
    <glyph glyph-name="h" unicode="h" horiz-adv-x="867" vert-adv-y="2457" 
d="M100 0v1536h115v-795q89 126 259 126q127 0 209 -69q70 -60 82 -178q2 -26 2 -87v-533h-115v537q0 85 -21 134q-39 92 -169 92q-100 0 -169 -59q-78 -67 -78 -263v-441h-115z" />
    <glyph glyph-name="i" unicode="i" horiz-adv-x="314" vert-adv-y="2457" 
d="M100 0v853h115v-853h-115zM157 1307q33 0 56 -23q24 -23 24 -57q0 -32 -22 -56q-24 -26 -59 -26q-32 0 -56 24q-25 24 -25 60q0 33 24 55q25 23 58 23z" />
    <glyph glyph-name="j" unicode="j" horiz-adv-x="314" vert-adv-y="2457" 
d="M156 1308q33 0 57 -23q24 -24 24 -58t-23 -57q-24 -24 -57 -24q-34 0 -57 23q-25 23 -25 58q0 32 22 56q24 25 59 25zM215 853v-1038q0 -97 -29 -140q-38 -57 -102 -57q-91 0 -175 84l62 75q49 -51 88 -51q25 0 34 29q7 24 7 92v1006h115z" />
    <glyph glyph-name="k" unicode="k" horiz-adv-x="739" vert-adv-y="2457" 
d="M100 0v1536h115v-1099l341 416h148l-343 -417l371 -436h-146l-371 437v-437h-115z" />
    <glyph glyph-name="l" unicode="l" horiz-adv-x="314" vert-adv-y="2457" 
d="M100 0v1536h115v-1536h-115z" />
    <glyph glyph-name="m" unicode="m" horiz-adv-x="1304" vert-adv-y="2457" 
d="M100 0v853h115v-106q82 120 231 120q160 0 243 -138q86 138 244 138q166 0 235 -118q36 -63 36 -205v-544h-115v549q0 98 -23 137q-45 78 -141 78q-87 0 -151 -68q-47 -51 -57 -144q-3 -34 -3 -120v-432h-115v544q0 103 -31 149q-46 70 -142 70q-78 0 -136 -51
q-57 -50 -70 -157q-5 -46 -5 -132v-423h-115z" />
    <glyph glyph-name="n" unicode="n" horiz-adv-x="866" vert-adv-y="2457" 
d="M100 0v853h115v-110q95 124 257 124q129 0 209 -69q60 -53 78 -141q8 -41 8 -140v-517h-115v512q0 122 -29 171q-47 80 -165 80q-116 0 -183 -78q-60 -69 -60 -236v-449h-115z" />
    <glyph glyph-name="o" unicode="o" horiz-adv-x="1014" vert-adv-y="2457" 
d="M513 867q208 0 338 -153q99 -117 99 -283q0 -199 -138 -328q-126 -117 -311 -117q-135 0 -243 71q-97 65 -149 174q-45 93 -45 203q0 193 152 324q126 109 297 109zM512 763q-151 0 -249 -110q-82 -92 -82 -221q0 -146 89 -243q92 -99 232 -99q163 0 259 123
q72 92 72 220q0 143 -92 237q-91 93 -229 93z" />
    <glyph glyph-name="p" unicode="p" horiz-adv-x="976" vert-adv-y="2457" 
d="M100 -382v1235h115v-138q49 60 92 90q89 62 205 62q193 0 310 -144q91 -113 91 -295q0 -200 -115 -322q-113 -120 -288 -120q-132 0 -227 77q-30 24 -68 70v-515h-115zM504 763q-147 0 -229 -111q-60 -81 -60 -225q0 -174 78 -252q84 -85 204 -85q160 0 244 127
q55 83 55 210q0 161 -83 250q-80 86 -209 86z" />
    <glyph glyph-name="q" unicode="q" horiz-adv-x="976" vert-adv-y="2457" 
d="M876 -382h-115v516q-52 -58 -94 -88q-85 -60 -200 -60q-205 0 -322 161q-82 114 -82 279q0 211 122 331q112 110 277 110q133 0 230 -80q29 -24 69 -70v136h115v-1235zM474 763q-150 0 -232 -111q-62 -84 -62 -224q0 -152 75 -239q85 -99 223 -99q145 0 224 106
q59 77 59 224q0 177 -82 260t-205 83z" />
    <glyph glyph-name="r" unicode="r" horiz-adv-x="580" vert-adv-y="2457" 
d="M100 0v853h115v-125q34 51 64 80q62 59 141 59q72 0 154 -50l-50 -103q-62 49 -117 49q-78 0 -133 -68q-47 -60 -53 -158q-1 -16 -6 -104v-433h-115z" />
    <glyph glyph-name="s" unicode="s" horiz-adv-x="595" vert-adv-y="2457" 
d="M55 109l73 78q83 -97 177 -97q71 0 113 50q32 38 32 82q0 54 -50 104q-27 28 -118 73q-105 53 -150 104q-54 63 -54 146q0 105 78 168q63 50 154 50q146 0 224 -120l-93 -61q-23 30 -39 44q-38 33 -89 33q-56 0 -95 -35q-36 -33 -36 -76q0 -79 144 -154q138 -72 172 -109
q56 -63 56 -154q0 -120 -88 -194q-67 -55 -167 -55q-144 0 -244 123z" />
    <glyph glyph-name="t" unicode="t" horiz-adv-x="483" vert-adv-y="2457" 
d="M164 0v755h-96v98h96v348h115v-348h177v-98h-177v-755h-115z" />
    <glyph glyph-name="u" unicode="u" horiz-adv-x="855" vert-adv-y="2457" 
d="M100 853h115v-509q0 -113 27 -164q25 -48 84 -72q46 -18 99 -18q133 0 185 88q30 51 30 171v504h115v-503q0 -112 -11 -153q-34 -120 -143 -174q-75 -37 -174 -37q-181 0 -265 106q-55 70 -60 168q-2 31 -2 78v515z" />
    <glyph glyph-name="v" unicode="v" horiz-adv-x="824" vert-adv-y="2457" 
d="M7 853h123l233 -512q26 -58 52 -127q38 97 53 131l224 508h125l-402 -894z" />
    <glyph glyph-name="w" unicode="w" horiz-adv-x="1291" vert-adv-y="2457" 
d="M7 853h126l193 -487q20 -50 50 -132q23 76 46 133l217 542l202 -537q15 -39 52 -148q23 67 59 152l204 477h128l-398 -908l-223 600l-9 27q-10 28 -15 52q-7 -23 -18 -52l-11 -28l-236 -599z" />
    <glyph glyph-name="x" unicode="x" horiz-adv-x="789" vert-adv-y="2457" 
d="M7 0l312 433l-312 420h146l179 -246q38 -53 52 -74l9 -13q14 21 21 31q16 23 39 56l176 246h139l-304 -420l319 -433h-141l-190 259q-2 2 -19 27q-3 5 -18 25q-11 16 -22 34q-16 -23 -42 -60l-20 -29l-186 -256h-138z" />
    <glyph glyph-name="y" unicode="y" horiz-adv-x="854" vert-adv-y="2457" 
d="M194 -382l209 491l-396 744h130l327 -614q17 45 32 79l231 535h121l-535 -1235h-119z" />
    <glyph glyph-name="z" unicode="z" horiz-adv-x="824" vert-adv-y="2457" 
d="M37 0l522 755h-494v98h697l-519 -755h538v-98h-744z" />
    <glyph glyph-name="braceleft" unicode="{" horiz-adv-x="550" vert-adv-y="2457" 
d="M450 1536v-109h-143q-61 0 -61 -82v-563q0 -97 -31 -140q-24 -34 -106 -65q80 -29 106 -67q31 -46 31 -138v-563q0 -82 61 -82h143v-109h-184q-63 0 -100 36q-36 37 -36 100v550q0 88 -23 125q-22 36 -114 80v136q92 44 114 80q23 37 23 125v550q0 63 36 100
q37 36 100 36h184z" />
    <glyph glyph-name="bar" unicode="|" vert-adv-y="2457" 
d="M454 1365h116v-1706h-116v1706z" />
    <glyph glyph-name="braceright" unicode="}" horiz-adv-x="550" vert-adv-y="2457" 
d="M100 1536h184q64 0 101 -36q36 -37 36 -100v-550q0 -88 23 -125q21 -36 113 -80v-136q-91 -44 -113 -80q-23 -37 -23 -125v-550q0 -63 -36 -100q-37 -36 -101 -36h-184v109h143q62 0 62 82v563q0 92 31 138q26 38 105 67q-81 31 -105 65q-31 43 -31 140v563q0 82 -62 82
h-143v109z" />
    <glyph glyph-name="asciitilde" unicode="~" horiz-adv-x="1365" vert-adv-y="2457" 
d="M264 1205l-72 46q40 77 76 122q79 100 196 100q79 0 234 -76q104 -52 141 -61q35 -10 64 -10q74 0 125 52q34 34 72 99l73 -43q-112 -219 -283 -219q-34 0 -84 16q-52 16 -78 28l-122 59q-94 45 -150 45q-69 0 -122 -57q-34 -36 -70 -101z" />
    <glyph glyph-name="uni00A0" unicode="&#xa0;" horiz-adv-x="512" vert-adv-y="2457" 
 />
    <glyph glyph-name="exclamdown" unicode="&#xa1;" horiz-adv-x="476" vert-adv-y="2457" 
d="M302 512v-1017h-126v1017h126zM238 868q40 0 70 -28q31 -30 31 -74q0 -40 -29 -69q-29 -31 -72 -31q-41 0 -71 29t-30 72q0 41 28 70q30 31 73 31z" />
    <glyph glyph-name="cent" unicode="&#xa2;" horiz-adv-x="915" vert-adv-y="2457" 
d="M462 102v140q-105 22 -178 78q-58 44 -98 104q-75 111 -75 249q0 151 92 267q98 125 259 161v162h109v-152q69 -2 120 -17q48 -15 120 -54v-144q-71 68 -132 94q-43 17 -108 21v-672q69 4 118 26q64 29 122 96v-144q-92 -71 -240 -82v-133h-109zM462 998
q-88 -32 -138 -83q-96 -98 -96 -243q0 -182 141 -279q39 -26 93 -43v648z" />
    <glyph glyph-name="sterling" unicode="&#xa3;" horiz-adv-x="915" vert-adv-y="2457" 
d="M55 87q43 43 82 66q86 53 158 53q11 0 37 -3q21 75 21 140q0 77 -31 156h-233v109h179q-150 238 -150 424q0 175 129 277q96 76 232 76q163 0 261 -103q93 -98 111 -315l-123 -20q-10 97 -32 161q-24 75 -78 119q-59 49 -143 49q-99 0 -166 -73q-64 -71 -64 -187
q0 -85 41 -177q19 -43 71 -137q30 -55 50 -94h337v-109h-295q31 -77 31 -149t-32 -165q23 -13 64 -39q89 -57 149 -57q80 0 176 111l77 -76q-116 -144 -257 -144q-62 0 -145 47q-70 40 -107 53t-82 13q-72 0 -135 -38q-28 -17 -79 -64z" />
    <glyph glyph-name="currency" unicode="&#xa4;" horiz-adv-x="1186" vert-adv-y="2457" 
d="M1037 1229l74 -73l-169 -170q102 -141 102 -281q0 -135 -96 -279l168 -169l-73 -73l-169 169q-68 -54 -122 -74q-78 -30 -164 -30q-94 0 -176 37q-39 17 -98 61l-169 -170l-74 74l169 168q-105 143 -105 283q0 142 104 287l-168 170l73 73l170 -169q67 48 118 67
q74 28 158 28q96 0 177 -36q39 -17 102 -63zM591 1042q-147 0 -246 -109q-87 -95 -87 -229q0 -152 113 -254q95 -85 220 -85t218 85q112 102 112 250q0 119 -68 211q-46 63 -119 98q-68 33 -143 33z" />
    <glyph glyph-name="yen" unicode="&#xa5;" horiz-adv-x="915" vert-adv-y="2457" 
d="M392 492h-242v109h228l-74 164h-188v109h141l-220 491h127l292 -657l293 657h128l-224 -491h144v-109h-192l-75 -164h233v-109h-248v-492h-123v492z" />
    <glyph glyph-name="brokenbar" unicode="&#xa6;" vert-adv-y="2457" 
d="M454 1365h116v-673h-116v673zM454 314h116v-655h-116v655z" />
    <glyph glyph-name="section" unicode="&#xa7;" horiz-adv-x="1038" vert-adv-y="2457" 
d="M864 1055h-107q-3 93 -37 147q-64 103 -214 103q-110 0 -171 -64q-44 -46 -44 -114q0 -70 47 -117q35 -35 159 -101q227 -121 321 -190q154 -113 154 -252q0 -127 -107 -211q-46 -35 -109 -56q113 -100 113 -214q0 -133 -110 -216q-90 -69 -238 -69q-162 0 -259 86
q-103 91 -107 277h107q11 -267 256 -267q113 0 176 59q57 54 57 130q0 67 -46 121q-38 43 -169 121q-35 21 -190 107q-136 75 -201 139q-78 76 -78 186q0 193 208 271q-99 83 -99 199q0 110 84 185q92 83 247 83q210 0 302 -141q52 -80 55 -202zM342 875q-170 -66 -170 -205
q0 -73 76 -143q55 -50 244 -157q91 -52 113 -66q60 -38 80 -49q66 20 109 57q70 59 70 140q0 99 -120 187q-91 66 -305 183q-79 44 -97 53z" />
    <glyph glyph-name="dieresis" unicode="&#xa8;" vert-adv-y="2457" 
d="M342 1174q31 0 52 -21t21 -52q0 -30 -21 -51q-21 -22 -52 -22q-30 0 -52 22q-21 23 -21 54q0 30 22 50t51 20zM684 1173q28 0 48 -18q25 -21 25 -54q0 -28 -18 -49q-22 -25 -54 -25q-29 0 -50 20q-24 23 -24 57q0 28 20 47q22 22 53 22z" />
    <glyph glyph-name="copyright" unicode="&#xa9;" horiz-adv-x="1599" vert-adv-y="2457" 
d="M1079 308q-99 -47 -218 -47q-211 0 -341 145q-108 121 -108 275q0 109 57 207q65 110 177 167q97 50 217 50q115 0 216 -48v-96q-109 66 -218 66q-165 0 -268 -117q-85 -96 -85 -227q0 -154 114 -255q102 -89 242 -89q104 0 215 67v-98zM804 1405q199 0 377 -103
q176 -102 266 -287q77 -157 77 -333q0 -206 -104 -382q-102 -173 -288 -264q-158 -76 -332 -76q-205 0 -382 103q-175 101 -266 287q-77 157 -77 331q0 208 103 386q101 173 290 264q151 74 336 74zM807 1327q-188 0 -346 -92q-156 -90 -237 -255q-68 -141 -68 -296
q0 -181 95 -337t257 -239q137 -70 292 -70q266 0 454 189q189 190 189 459q0 180 -92 339q-88 152 -257 234q-139 68 -287 68z" />
    <glyph glyph-name="ordfeminine" unicode="&#xaa;" horiz-adv-x="609" vert-adv-y="2457" 
d="M468 1292v73h83v-546h-83v73q-73 -82 -183 -82q-118 0 -192 86q-63 75 -63 191q0 126 73 208q71 79 183 79q111 0 182 -82zM294 1298q-94 0 -145 -77q-35 -54 -35 -128q0 -109 63 -164q49 -43 114 -43q81 0 132 57q45 51 45 148q0 98 -44 150q-48 57 -130 57z" />
    <glyph glyph-name="guillemotleft" unicode="&#xab;" horiz-adv-x="601" vert-adv-y="2457" 
d="M505 142l-61 -25l-158 313l158 306l61 -26l-99 -280zM286 142l-61 -25l-157 313l157 306l61 -26l-98 -280z" />
    <glyph glyph-name="logicalnot" unicode="&#xac;" vert-adv-y="2457" 
d="M839 0v438h-771v108h887v-546h-116z" />
    <glyph glyph-name="uni00AD" unicode="&#xad;" horiz-adv-x="363" vert-adv-y="2457" 
d="M0 373v106h363v-106h-363z" />
    <glyph glyph-name="registered" unicode="&#xae;" horiz-adv-x="1599" vert-adv-y="2457" 
d="M608 1092h91q102 0 135 -4q97 -13 146 -82q42 -60 42 -137q0 -97 -65 -160q-41 -40 -124 -56l240 -380h-104l-238 379h-33v-379h-90v819zM698 1014v-284h47q92 0 123 17q62 34 62 122q0 107 -85 135q-29 10 -106 10h-41zM804 1405q199 0 377 -103q176 -102 266 -287
q77 -157 77 -333q0 -206 -104 -382q-102 -173 -288 -264q-158 -76 -332 -76q-205 0 -382 103q-175 101 -266 287q-77 157 -77 331q0 208 103 386q101 173 290 264q151 74 336 74zM807 1327q-188 0 -346 -92q-156 -90 -237 -255q-68 -141 -68 -296q0 -181 95 -337t257 -239
q137 -70 292 -70q266 0 454 189q189 190 189 459q0 180 -92 339q-88 152 -257 234q-139 68 -287 68z" />
    <glyph glyph-name="macron" unicode="&#xaf;" vert-adv-y="2457" 
d="M205 1049v93h614v-93h-614z" />
    <glyph glyph-name="degree" unicode="&#xb0;" horiz-adv-x="915" vert-adv-y="2457" 
d="M458 1383q145 0 246 -107q90 -95 90 -234t-102 -238q-98 -95 -234 -95q-149 0 -250 110q-87 96 -87 226q0 104 58 191q50 76 139 116q68 31 140 31zM455 1275q-84 0 -147 -61q-74 -71 -74 -168q0 -84 54 -150q66 -79 169 -79q86 0 153 63q71 68 71 160q0 97 -62 162
q-69 73 -164 73z" />
    <glyph glyph-name="plusminus" unicode="&#xb1;" horiz-adv-x="915" vert-adv-y="2457" 
d="M399 625h-338v116h338v338h116v-338h338v-116h-338v-338h-116v338zM61 38v116h792v-116h-792z" />
    <glyph glyph-name="uni00B2" unicode="&#xb2;" horiz-adv-x="601" vert-adv-y="2457" 
d="M56 546l264 350q44 59 74 109q43 74 43 149q0 67 -40 109q-34 36 -96 36q-105 0 -135 -95q-8 -25 -11 -92h-92q2 100 29 152q59 113 208 113q110 0 173 -66q57 -60 57 -158q0 -127 -113 -276l-190 -253h294v-78h-465z" />
    <glyph glyph-name="uni00B3" unicode="&#xb3;" horiz-adv-x="601" vert-adv-y="2457" 
d="M49 750h92q4 -57 30 -88q41 -50 119 -50q79 0 124 52q34 39 34 101q0 103 -75 144q-31 17 -120 21v78q71 0 106 15q30 13 50 46q23 38 23 89q0 74 -46 112q-35 29 -90 29q-121 0 -135 -129h-92q9 207 225 207q108 0 168 -56q62 -58 62 -157q0 -143 -120 -195
q136 -53 136 -201q0 -123 -82 -185q-64 -49 -170 -49q-127 0 -193 76q-45 52 -46 140z" />
    <glyph glyph-name="acute" unicode="&#xb4;" horiz-adv-x="1010" vert-adv-y="2457" 
d="M447 967l-51 30l136 259l95 -52z" />
    <glyph glyph-name="mu" unicode="&#xb5;" vert-adv-y="2457" 
d="M109 -340v1323h116v-567q0 -121 19 -177q36 -104 133 -149q60 -27 126 -27q135 0 218 106q46 58 64 127q15 54 15 141v546h116v-983h-116v192q-40 -93 -90 -139q-85 -81 -211 -81q-116 0 -200 69q-36 29 -74 90v-471h-116z" />
    <glyph glyph-name="paragraph" unicode="&#xb6;" horiz-adv-x="1147" vert-adv-y="2457" 
d="M493 -382v1028q-93 -1 -154 23q-97 38 -150 127q-52 89 -52 205q0 124 59 217q61 96 176 129q65 18 166 18h486v-109h-106v-1638h-116v1638h-193v-1638h-116z" />
    <glyph glyph-name="periodcentered" unicode="&#xb7;" horiz-adv-x="410" vert-adv-y="2457" 
d="M204 524q40 0 68 -27q30 -29 30 -71q0 -39 -28 -67q-28 -29 -69 -29q-39 0 -68 28q-29 29 -29 71q0 38 26 65q29 30 70 30z" />
    <glyph glyph-name="cedilla" unicode="&#xb8;" vert-adv-y="2457" 
d="M669 -69l-139 -233h-175l209 233h105z" />
    <glyph glyph-name="uni00B9" unicode="&#xb9;" horiz-adv-x="601" vert-adv-y="2457" 
d="M260 546v741h-123l41 78h172v-819h-90z" />
    <glyph glyph-name="ordmasculine" unicode="&#xba;" horiz-adv-x="609" vert-adv-y="2457" 
d="M308 1374q133 0 217 -98q63 -75 63 -181q0 -128 -89 -210q-80 -75 -198 -75q-139 0 -221 106q-59 78 -59 181q0 123 97 207q81 70 190 70zM307 1298q-91 0 -151 -68q-50 -55 -50 -134q0 -90 54 -149q56 -61 141 -61q100 0 158 75q44 56 44 135q0 88 -56 145
q-55 57 -140 57z" />
    <glyph glyph-name="guillemotright" unicode="&#xbb;" horiz-adv-x="601" vert-adv-y="2457" 
d="M96 142l99 288l-99 280l61 26l157 -306l-157 -313zM314 142l99 288l-99 280l62 26l157 -306l-157 -313z" />
    <glyph glyph-name="onequarter" unicode="&#xbc;" horiz-adv-x="1476" vert-adv-y="2457" 
d="M260 546v741h-123l41 78h172v-819h-90zM1107 1367l-629 -1365h-109l625 1365h113zM907 181l451 703v-625h84v-78h-84v-181h-90v181h-361zM1063 259h200v201q0 74 3 129q-16 -30 -48 -83l-30 -50z" />
    <glyph glyph-name="onehalf" unicode="&#xbd;" horiz-adv-x="1476" vert-adv-y="2457" 
d="M260 546v741h-123l41 78h172v-819h-90zM1107 1367l-629 -1365h-109l625 1365h113zM931 0l264 350q45 59 74 109q43 74 43 149q0 67 -39 109q-35 36 -96 36q-106 0 -136 -95q-8 -25 -11 -92h-92q2 100 29 152q60 113 208 113q110 0 173 -66q57 -59 57 -158
q0 -127 -113 -276l-190 -253h294v-78h-465z" />
    <glyph glyph-name="threequarters" unicode="&#xbe;" horiz-adv-x="1476" vert-adv-y="2457" 
d="M49 750h92q4 -57 30 -88q41 -50 119 -50q79 0 124 52q34 39 34 101q0 103 -75 144q-31 17 -120 21v78q71 0 106 15q30 13 50 46q23 38 23 89q0 74 -46 112q-35 29 -90 29q-121 0 -135 -129h-92q9 207 225 207q108 0 168 -56q62 -58 62 -157q0 -143 -120 -195
q136 -53 136 -201q0 -123 -82 -185q-64 -49 -170 -49q-127 0 -193 76q-45 52 -46 140zM1107 1367l-629 -1365h-109l625 1365h113zM907 181l451 703v-625h84v-78h-84v-181h-90v181h-361zM1063 259h200v201q0 75 3 129q-16 -30 -48 -83l-30 -50z" />
    <glyph glyph-name="questiondown" unicode="&#xbf;" horiz-adv-x="739" vert-adv-y="2457" 
d="M526 -208h117q-2 -98 -27 -157q-31 -70 -104 -108q-63 -32 -136 -32q-120 0 -196 77q-71 73 -71 189q0 134 104 239q29 29 111 95q91 74 121 111q46 57 46 122q0 51 -28 82q-30 33 -75 33q-103 0 -106 -140h-116q-1 14 -1 19q0 63 25 113q59 116 195 116q114 0 178 -85
q47 -62 47 -151q0 -112 -80 -201q-21 -23 -162 -135q-57 -46 -93 -94q-41 -56 -41 -130q0 -68 43 -112q38 -39 100 -39q86 0 123 67q16 29 26 121zM373 867q41 0 70 -28q31 -29 31 -73q0 -38 -27 -68q-29 -32 -72 -32q-42 0 -72 30t-30 72q0 43 30 71t70 28z" />
    <glyph glyph-name="Agrave" unicode="&#xc0;" horiz-adv-x="1181" vert-adv-y="2457" 
d="M589 1410l592 -1410h-130l-172 410h-572l-170 -410h-130zM834 516l-121 292q-89 212 -123 308q-23 -72 -106 -278l-133 -322h483zM628 1493l-180 238l95 52l136 -260z" />
    <glyph glyph-name="Aacute" unicode="&#xc1;" horiz-adv-x="1181" vert-adv-y="2457" 
d="M589 1410l592 -1410h-130l-172 410h-572l-170 -410h-130zM834 516l-121 292q-89 212 -123 308q-23 -72 -106 -278l-133 -322h483zM554 1493l-52 30l136 260l96 -52z" />
    <glyph glyph-name="Acircumflex" unicode="&#xc2;" horiz-adv-x="1181" vert-adv-y="2457" 
d="M589 1410l592 -1410h-130l-172 410h-572l-170 -410h-130zM834 516l-121 292q-89 212 -123 308q-23 -72 -106 -278l-133 -322h483zM358 1543l184 231h100l182 -231l-56 -44l-177 179l-182 -172z" />
    <glyph glyph-name="Atilde" unicode="&#xc3;" horiz-adv-x="1181" vert-adv-y="2457" 
d="M589 1410l592 -1410h-130l-172 410h-572l-170 -410h-130zM834 516l-121 292q-89 212 -123 308q-23 -72 -106 -278l-133 -322h483zM345 1546q2 48 18 85q42 98 130 98q23 0 48 -10q21 -8 76 -53q47 -38 77 -38q36 0 54 34q6 11 10 51h78q-1 -77 -38 -127q-39 -53 -107 -53
t-128 57q-26 24 -38 32q-13 8 -33 8q-54 0 -66 -84h-81z" />
    <glyph glyph-name="Adieresis" unicode="&#xc4;" horiz-adv-x="1181" vert-adv-y="2457" 
d="M589 1410l592 -1410h-130l-172 410h-572l-170 -410h-130zM834 516l-121 292q-89 212 -123 308q-23 -72 -106 -278l-133 -322h483zM424 1700q31 0 52 -21t21 -52q0 -30 -21 -51q-21 -22 -52 -22q-30 0 -52 22q-21 22 -21 54q0 31 22 50q22 20 51 20zM766 1699q27 0 48 -18
q25 -21 25 -54q0 -28 -18 -49q-21 -25 -54 -25q-29 0 -50 20q-24 23 -24 57q0 28 20 47q22 22 53 22z" />
    <glyph glyph-name="Aring" unicode="&#xc5;" horiz-adv-x="1181" vert-adv-y="2457" 
d="M589 1410l592 -1410h-130l-172 410h-572l-170 -410h-130zM834 516l-121 292q-89 212 -123 308q-23 -72 -106 -278l-133 -322h483zM590 1789q63 0 107 -46q43 -44 43 -106q0 -64 -45 -108q-44 -42 -104 -42q-62 0 -106 44q-44 43 -44 107q0 61 44 106q43 45 105 45z
M592 1710q-29 0 -49 -22t-20 -51q0 -30 21 -50t49 -20t48 19q21 21 21 52q0 30 -20 50q-21 22 -50 22z" />
    <glyph glyph-name="AE" unicode="&#xc6;" horiz-adv-x="1536" vert-adv-y="2457" 
d="M6 0l748 1365h700v-109h-519v-468h519v-109h-519v-570h519v-109h-642v409h-443l-223 -409h-140zM428 517h384v715z" />
    <glyph glyph-name="Ccedilla" unicode="&#xc7;" horiz-adv-x="1204" vert-adv-y="2457" 
d="M845 -69l-139 -233h-175l209 233h105zM1122 55q-155 -75 -340 -75q-338 0 -544 244q-170 201 -170 456q0 181 91 344q102 184 280 279q156 83 346 83q180 0 337 -76v-135q-165 102 -341 102q-162 0 -297 -80q-140 -82 -216 -229q-68 -131 -68 -286q0 -265 187 -438
q167 -155 401 -155q167 0 334 104v-138z" />
    <glyph glyph-name="Egrave" unicode="&#xc8;" horiz-adv-x="874" vert-adv-y="2457" 
d="M130 0v1365h662v-109h-539v-468h539v-109h-539v-570h539v-109h-662zM529 1493l-180 238l96 52l135 -260z" />
    <glyph glyph-name="Eacute" unicode="&#xc9;" horiz-adv-x="874" vert-adv-y="2457" 
d="M130 0v1365h662v-109h-539v-468h539v-109h-539v-570h539v-109h-662zM414 1493l-51 30l135 260l96 -52z" />
    <glyph glyph-name="Ecircumflex" unicode="&#xca;" horiz-adv-x="874" vert-adv-y="2457" 
d="M130 0v1365h662v-109h-539v-468h539v-109h-539v-570h539v-109h-662zM232 1543l184 231h99l182 -231l-55 -44l-178 179l-181 -172z" />
    <glyph glyph-name="Edieresis" unicode="&#xcb;" horiz-adv-x="874" vert-adv-y="2457" 
d="M130 0v1365h662v-109h-539v-468h539v-109h-539v-570h539v-109h-662zM295 1700q31 0 52 -21t21 -52q0 -30 -21 -51q-21 -22 -52 -22q-30 0 -52 22q-21 23 -21 54t22 50q22 20 51 20zM637 1699q27 0 48 -18q25 -21 25 -54q0 -28 -18 -49q-21 -25 -55 -25q-28 0 -49 20
q-24 23 -24 57q0 28 20 47q22 22 53 22z" />
    <glyph glyph-name="Igrave" unicode="&#xcc;" horiz-adv-x="382" vert-adv-y="2457" 
d="M130 0v1365h123v-1365h-123zM256 1493l-180 238l96 52l135 -260z" />
    <glyph glyph-name="Iacute" unicode="&#xcd;" horiz-adv-x="382" vert-adv-y="2457" 
d="M130 0v1365h123v-1365h-123zM127 1493l-51 30l136 260l95 -52z" />
    <glyph glyph-name="Icircumflex" unicode="&#xce;" horiz-adv-x="382" vert-adv-y="2457" 
d="M129 0v1365h123v-1365h-123zM-42 1543l184 231h100l182 -231l-56 -44l-177 179l-182 -172z" />
    <glyph glyph-name="Idieresis" unicode="&#xcf;" horiz-adv-x="382" vert-adv-y="2457" 
d="M130 0v1365h123v-1365h-123zM76 1700q31 0 52 -21t21 -52q0 -30 -21 -51q-21 -22 -52 -22q-30 0 -52 22q-21 23 -21 54q0 30 22 50t51 20zM309 1699q27 0 48 -18q25 -21 25 -54q0 -28 -18 -49q-21 -25 -54 -25q-29 0 -50 20q-24 23 -24 57q0 28 20 47q22 22 53 22z" />
    <glyph glyph-name="Eth" unicode="&#xd0;" horiz-adv-x="1198" vert-adv-y="2457" 
d="M-27 634v96h157v635h196q128 0 200 -7q206 -21 336 -116q139 -102 210 -266q58 -132 58 -291q0 -251 -140 -435q-157 -207 -395 -238q-95 -12 -197 -12h-268v634h-157zM253 730h375v-96h-375v-525h139q125 0 184 9q201 29 320 200q101 145 101 362q0 232 -118 383
q-125 161 -369 186q-73 7 -183 7h-74v-526z" />
    <glyph glyph-name="Ntilde" unicode="&#xd1;" horiz-adv-x="1406" vert-adv-y="2457" 
d="M130 0v1406l965 -1075q47 -52 68 -90q-9 84 -9 203v921h123v-1420l-947 1062q-51 59 -85 108q9 -46 9 -108l-1 -62v-945h-123zM458 1546q2 48 18 85q42 98 130 98q23 0 48 -10q21 -8 76 -53q47 -38 77 -38q35 0 54 34q5 11 9 51h79q-2 -77 -38 -127q-39 -53 -107 -53
t-129 57q-25 24 -37 32q-13 8 -34 8q-53 0 -65 -84h-81z" />
    <glyph glyph-name="Ograve" unicode="&#xd2;" horiz-adv-x="1570" vert-adv-y="2457" 
d="M782 1385q302 0 510 -207q93 -91 146 -208q64 -140 64 -294q0 -286 -205 -489q-209 -207 -517 -207q-312 0 -515 213q-197 206 -197 496q0 140 67 289q92 204 288 316q160 91 359 91zM782 1276q-248 0 -415 -169q-80 -81 -124 -193q-43 -109 -43 -222q0 -248 151 -415
q79 -87 191 -137q115 -51 241 -51q245 0 422 183q165 170 165 401q0 166 -84 312q-84 147 -229 225q-124 66 -275 66zM849 1493l-180 238l96 52l135 -260z" />
    <glyph glyph-name="Oacute" unicode="&#xd3;" horiz-adv-x="1570" vert-adv-y="2457" 
d="M782 1385q302 0 510 -207q93 -91 146 -208q64 -140 64 -294q0 -286 -205 -489q-209 -207 -517 -207q-312 0 -515 213q-197 206 -197 496q0 140 67 289q92 204 288 316q160 91 359 91zM782 1276q-248 0 -415 -169q-80 -81 -124 -193q-43 -109 -43 -222q0 -248 151 -415
q79 -87 191 -137q115 -51 241 -51q245 0 422 183q165 170 165 401q0 166 -84 312q-84 147 -229 225q-124 66 -275 66zM720 1493l-51 30l136 260l95 -52z" />
    <glyph glyph-name="Ocircumflex" unicode="&#xd4;" horiz-adv-x="1570" vert-adv-y="2457" 
d="M782 1385q302 0 510 -207q93 -91 146 -208q64 -140 64 -294q0 -286 -205 -489q-209 -207 -517 -207q-312 0 -515 213q-197 206 -197 496q0 140 67 289q92 204 288 316q160 91 359 91zM782 1276q-248 0 -415 -169q-80 -81 -124 -193q-43 -109 -43 -222q0 -248 151 -415
q79 -87 191 -137q115 -51 241 -51q245 0 422 183q165 170 165 401q0 166 -84 312q-84 147 -229 225q-124 66 -275 66zM552 1543l184 231h100l182 -231l-56 -44l-177 179l-182 -172z" />
    <glyph glyph-name="Otilde" unicode="&#xd5;" horiz-adv-x="1570" vert-adv-y="2457" 
d="M782 1385q302 0 510 -207q93 -91 146 -208q64 -140 64 -294q0 -286 -205 -489q-209 -207 -517 -207q-312 0 -515 213q-197 206 -197 496q0 140 67 289q92 204 288 316q160 91 359 91zM782 1276q-248 0 -415 -169q-80 -81 -124 -193q-43 -109 -43 -222q0 -248 151 -415
q79 -87 191 -137q115 -51 241 -51q245 0 422 183q165 170 165 401q0 166 -84 312q-84 147 -229 225q-124 66 -275 66zM539 1546q2 48 18 85q42 98 130 98q23 0 48 -10q21 -8 76 -53q47 -38 77 -38q36 0 54 34q6 11 10 51h78q-1 -77 -38 -127q-39 -53 -107 -53q-67 0 -128 57
q-26 24 -38 32q-13 8 -33 8q-54 0 -65 -84h-82z" />
    <glyph glyph-name="Odieresis" unicode="&#xd6;" horiz-adv-x="1570" vert-adv-y="2457" 
d="M782 1385q302 0 510 -207q93 -91 146 -208q64 -140 64 -294q0 -286 -205 -489q-209 -207 -517 -207q-312 0 -515 213q-197 206 -197 496q0 140 67 289q92 204 288 316q160 91 359 91zM782 1276q-248 0 -415 -169q-80 -81 -124 -193q-43 -109 -43 -222q0 -248 151 -415
q79 -87 191 -137q115 -51 241 -51q245 0 422 183q165 170 165 401q0 166 -84 312q-84 147 -229 225q-124 66 -275 66zM615 1700q30 0 52 -21q21 -21 21 -52q0 -30 -21 -51q-21 -22 -52 -22q-30 0 -52 22q-21 23 -21 54t22 50q22 20 51 20zM957 1699q27 0 48 -18
q25 -21 25 -54q0 -28 -18 -49q-21 -25 -54 -25q-29 0 -50 20q-24 23 -24 57q0 28 20 47q22 22 53 22z" />
    <glyph glyph-name="multiply" unicode="&#xd7;" horiz-adv-x="915" vert-adv-y="2457" 
d="M457 601l-287 -288l-82 82l287 288l-287 287l82 82l287 -287l287 287l83 -82l-288 -287l288 -288l-83 -82z" />
    <glyph glyph-name="Oslash" unicode="&#xd8;" horiz-adv-x="1571" vert-adv-y="2457" 
d="M1268 1202q234 -219 234 -525q0 -287 -205 -490q-209 -207 -518 -207q-216 0 -388 108l-104 -132l-92 72l103 132q-79 73 -128 156q-102 171 -102 364q0 206 116 388q108 169 291 252q142 65 306 65q215 0 394 -112l79 100l92 -71zM1193 1108l-731 -929q150 -90 318 -90
q248 0 425 183q165 171 165 401q0 190 -108 351q-28 42 -69 84zM371 252l732 931q-139 93 -322 93q-249 0 -414 -169q-167 -170 -167 -424q0 -154 68 -289q41 -80 103 -142z" />
    <glyph glyph-name="Ugrave" unicode="&#xd9;" horiz-adv-x="1158" vert-adv-y="2457" 
d="M116 1365h123v-839q0 -123 11 -182q25 -130 126 -201q77 -54 195 -54q222 0 305 162q43 85 43 274v840h123v-838q0 -135 -16 -214q-34 -169 -172 -262q-106 -71 -280 -71q-279 0 -395 205q-63 111 -63 341v839zM670 1493l-179 238l95 52l136 -260z" />
    <glyph glyph-name="Uacute" unicode="&#xda;" horiz-adv-x="1158" vert-adv-y="2457" 
d="M116 1365h123v-839q0 -123 11 -182q25 -130 126 -201q77 -54 195 -54q222 0 305 162q43 85 43 274v840h123v-838q0 -135 -16 -214q-34 -169 -172 -262q-106 -71 -280 -71q-279 0 -395 205q-63 111 -63 341v839zM542 1493l-51 30l135 260l96 -52z" />
    <glyph glyph-name="Ucircumflex" unicode="&#xdb;" horiz-adv-x="1158" vert-adv-y="2457" 
d="M116 1365h123v-839q0 -123 11 -182q25 -130 126 -201q77 -54 195 -54q222 0 305 162q43 85 43 274v840h123v-838q0 -135 -16 -214q-34 -169 -172 -262q-106 -71 -280 -71q-279 0 -395 205q-63 111 -63 341v839zM346 1543l184 231h100l182 -231l-56 -44l-177 179
l-182 -172z" />
    <glyph glyph-name="Udieresis" unicode="&#xdc;" horiz-adv-x="1158" vert-adv-y="2457" 
d="M116 1365h123v-839q0 -123 11 -182q25 -130 126 -201q77 -54 195 -54q222 0 305 162q43 85 43 274v840h123v-838q0 -135 -16 -214q-34 -169 -172 -262q-106 -71 -280 -71q-279 0 -395 205q-63 111 -63 341v839zM409 1700q30 0 52 -21q21 -21 21 -52q0 -30 -21 -51
q-21 -22 -52 -22q-30 0 -52 22q-21 23 -21 54q0 30 22 50t51 20zM751 1699q27 0 48 -18q25 -21 25 -54q0 -28 -18 -49q-21 -25 -54 -25q-29 0 -50 20q-24 23 -24 57q0 28 20 47q22 22 53 22z" />
    <glyph glyph-name="Yacute" unicode="&#xdd;" horiz-adv-x="967" vert-adv-y="2457" 
d="M416 0v570l-423 795h136l356 -658l359 658h137l-442 -795v-570h-123zM460 1493l-51 30l135 260l96 -52z" />
    <glyph glyph-name="Thorn" unicode="&#xde;" horiz-adv-x="872" vert-adv-y="2457" 
d="M130 0v1365h123v-205h64q160 0 219 -9q149 -22 221 -134q61 -95 61 -234q0 -157 -75 -255q-81 -105 -230 -120q-75 -7 -169 -7h-91v-401h-123zM253 1051v-541h100q94 0 129 4q103 13 159 88q50 66 50 180q0 181 -119 242q-43 22 -119 26q-17 1 -114 1h-86z" />
    <glyph glyph-name="germandbls" unicode="&#xdf;" horiz-adv-x="1001" vert-adv-y="2457" 
d="M100 0v1093q0 104 4 141q15 153 109 233t239 80q177 0 277 -113q88 -99 88 -242q0 -238 -220 -327q101 -25 172 -82q169 -134 169 -356q0 -211 -151 -340q-118 -101 -279 -101q-75 0 -170 29v108q83 -33 153 -33q155 0 248 110q81 97 81 232q0 160 -111 265
q-105 100 -279 105q-21 1 -69 1q-8 0 -23 1v104q151 1 225 34q79 35 118 107q32 60 32 133q0 113 -71 185q-74 76 -193 76q-99 0 -160 -57t-68 -171q-6 -87 -6 -121v-1094h-115z" />
    <glyph glyph-name="agrave" unicode="&#xe0;" horiz-adv-x="976" vert-adv-y="2457" 
d="M761 720v133h115v-853h-115v133q-117 -147 -299 -147q-185 0 -300 135q-99 116 -99 298q0 197 114 325q110 123 285 123q183 0 299 -147zM476 764q-155 0 -238 -126q-58 -89 -58 -209q0 -180 104 -270q80 -70 188 -70q124 0 209 85q81 82 81 257q0 152 -72 238
q-80 95 -214 95zM539 967l-180 237l95 52l136 -259z" />
    <glyph glyph-name="aacute" unicode="&#xe1;" horiz-adv-x="976" vert-adv-y="2457" 
d="M761 720v133h115v-853h-115v133q-117 -147 -299 -147q-185 0 -300 135q-99 116 -99 298q0 197 114 325q110 123 285 123q183 0 299 -147zM476 764q-155 0 -238 -126q-58 -89 -58 -209q0 -180 104 -270q80 -70 188 -70q124 0 209 85q81 82 81 257q0 152 -72 238
q-80 95 -214 95zM458 967l-52 30l136 259l96 -52z" />
    <glyph glyph-name="acircumflex" unicode="&#xe2;" horiz-adv-x="976" vert-adv-y="2457" 
d="M761 720v133h115v-853h-115v133q-117 -147 -299 -147q-185 0 -300 135q-99 116 -99 298q0 197 114 325q110 123 285 123q183 0 299 -147zM476 764q-155 0 -238 -126q-58 -89 -58 -209q0 -180 104 -270q80 -70 188 -70q124 0 209 85q81 82 81 257q0 152 -72 238
q-80 95 -214 95zM255 1016l184 231h100l182 -231l-56 -44l-177 179l-182 -172z" />
    <glyph glyph-name="atilde" unicode="&#xe3;" horiz-adv-x="976" vert-adv-y="2457" 
d="M761 720v133h115v-853h-115v133q-117 -147 -299 -147q-185 0 -300 135q-99 116 -99 298q0 197 114 325q110 123 285 123q183 0 299 -147zM476 764q-155 0 -238 -126q-58 -89 -58 -209q0 -180 104 -270q80 -70 188 -70q124 0 209 85q81 82 81 257q0 152 -72 238
q-80 95 -214 95zM242 1020q2 48 18 85q42 97 130 97q24 0 48 -10q21 -8 76 -52q48 -38 77 -38q36 0 54 34q6 11 10 50h79q-2 -77 -39 -126q-39 -53 -107 -53q-67 0 -128 57q-26 24 -38 32q-13 8 -33 8q-54 0 -65 -84h-82z" />
    <glyph glyph-name="adieresis" unicode="&#xe4;" horiz-adv-x="976" vert-adv-y="2457" 
d="M761 720v133h115v-853h-115v133q-117 -147 -299 -147q-185 0 -300 135q-99 116 -99 298q0 197 114 325q110 123 285 123q183 0 299 -147zM476 764q-155 0 -238 -126q-58 -89 -58 -209q0 -180 104 -270q80 -70 188 -70q124 0 209 85q81 82 81 257q0 152 -72 238
q-80 95 -214 95zM341 1174q30 0 52 -21q21 -21 21 -52q0 -29 -21 -51t-52 -22q-30 0 -52 22q-21 23 -21 54q0 30 22 50t51 20zM683 1173q28 0 48 -18q25 -21 25 -54q0 -28 -18 -49q-21 -25 -54 -25q-29 0 -50 20q-24 23 -24 57q0 27 20 47q22 22 53 22z" />
    <glyph glyph-name="aring" unicode="&#xe5;" horiz-adv-x="976" vert-adv-y="2457" 
d="M761 720v133h115v-853h-115v133q-117 -147 -299 -147q-185 0 -300 135q-99 116 -99 298q0 197 114 325q110 123 285 123q183 0 299 -147zM476 764q-155 0 -238 -126q-58 -89 -58 -209q0 -180 104 -270q80 -70 188 -70q124 0 209 85q81 82 81 257q0 152 -72 238
q-80 95 -214 95zM487 1263q63 0 107 -46q43 -44 43 -106q0 -64 -45 -108q-44 -42 -104 -42q-62 0 -106 44q-44 43 -44 107q0 61 44 106q43 45 105 45zM489 1184q-29 0 -49 -22t-20 -51q0 -30 21 -50t49 -20t48 19q21 21 21 52q0 30 -20 50q-21 22 -50 22z" />
    <glyph glyph-name="ae" unicode="&#xe6;" horiz-adv-x="1479" vert-adv-y="2457" 
d="M130 674v120q143 73 319 73q112 0 197 -58q52 -35 84 -106q41 68 102 106q93 58 199 58q166 0 269 -104q93 -94 109 -250q4 -35 6 -98h-654q5 -124 54 -202q78 -124 236 -124q159 0 249 160l87 -47q-129 -216 -348 -216q-202 0 -317 174q-100 -174 -325 -174
q-187 0 -282 115q-60 73 -60 177q0 101 60 176q102 125 287 125q137 0 254 -92v31q-1 81 -12 115q-23 65 -91 101q-54 29 -118 29q-136 0 -305 -89zM420 483q-149 0 -217 -97q-32 -45 -32 -103q0 -64 40 -112q70 -82 210 -82q123 0 192 69q51 51 51 129q0 67 -39 112
q-72 84 -205 84zM765 513h535q-11 87 -42 138q-33 54 -92 82q-62 30 -132 30q-159 0 -229 -125q-30 -51 -40 -125z" />
    <glyph glyph-name="ccedilla" unicode="&#xe7;" horiz-adv-x="819" vert-adv-y="2457" 
d="M559 -69l-139 -233h-175l209 233h105zM764 791v-144q-51 49 -88 72q-73 44 -163 44q-155 0 -252 -115q-80 -94 -80 -224q0 -160 113 -257q88 -77 214 -77q148 0 256 123v-144q-108 -83 -261 -83q-194 0 -319 133q-120 128 -120 306q0 200 151 331q126 111 301 111
q97 0 187 -43q23 -12 61 -33z" />
    <glyph glyph-name="egrave" unicode="&#xe8;" horiz-adv-x="897" vert-adv-y="2457" 
d="M832 415h-651q2 -111 40 -184q74 -142 237 -142q156 0 253 162l93 -51q-128 -214 -348 -214q-201 0 -311 155q-81 116 -81 288q0 185 97 302q113 136 298 136q149 0 251 -96q97 -92 117 -248q5 -41 5 -108zM181 513h531q-5 78 -39 133q-33 51 -89 83q-61 34 -134 34
q-156 0 -234 -141q-28 -50 -35 -109zM499 967l-180 237l96 52l135 -259z" />
    <glyph glyph-name="eacute" unicode="&#xe9;" horiz-adv-x="897" vert-adv-y="2457" 
d="M832 415h-651q2 -111 40 -184q74 -142 237 -142q156 0 253 162l93 -51q-128 -214 -348 -214q-201 0 -311 155q-81 116 -81 288q0 185 97 302q113 136 298 136q149 0 251 -96q97 -92 117 -248q5 -41 5 -108zM181 513h531q-5 78 -39 133q-33 51 -89 83q-61 34 -134 34
q-156 0 -234 -141q-28 -50 -35 -109zM418 967l-51 30l135 259l96 -52z" />
    <glyph glyph-name="ecircumflex" unicode="&#xea;" horiz-adv-x="897" vert-adv-y="2457" 
d="M832 415h-651q2 -111 40 -184q74 -142 237 -142q156 0 253 162l93 -51q-128 -214 -348 -214q-201 0 -311 155q-81 116 -81 288q0 185 97 302q113 136 298 136q149 0 251 -96q97 -92 117 -248q5 -41 5 -108zM181 513h531q-5 78 -39 133q-33 51 -89 83q-61 34 -134 34
q-156 0 -234 -141q-28 -50 -35 -109zM243 1016l184 231h99l182 -231l-55 -44l-178 179l-181 -172z" />
    <glyph glyph-name="edieresis" unicode="&#xeb;" horiz-adv-x="897" vert-adv-y="2457" 
d="M832 415h-651q2 -111 40 -184q74 -142 237 -142q156 0 253 162l93 -51q-128 -214 -348 -214q-201 0 -311 155q-81 116 -81 288q0 185 97 302q113 136 298 136q149 0 251 -96q97 -92 117 -248q5 -41 5 -108zM181 513h531q-5 78 -39 133q-33 51 -89 83q-61 34 -134 34
q-156 0 -234 -141q-28 -50 -35 -109zM278 1174q30 0 52 -21q21 -21 21 -52q0 -29 -21 -51t-52 -22q-30 0 -52 22q-21 23 -21 54q0 30 22 50t51 20zM620 1173q28 0 48 -18q25 -21 25 -54q0 -28 -18 -49q-21 -25 -54 -25q-29 0 -50 20q-24 23 -24 57q0 28 20 47q22 22 53 22z
" />
    <glyph glyph-name="igrave" unicode="&#xec;" horiz-adv-x="314" vert-adv-y="2457" 
d="M99 0v853h115v-853h-115zM180 967l-180 237l96 52l135 -259z" />
    <glyph glyph-name="iacute" unicode="&#xed;" horiz-adv-x="314" vert-adv-y="2457" 
d="M99 0v853h115v-853h-115zM99 967l-51 30l136 259l95 -52z" />
    <glyph glyph-name="icircumflex" unicode="&#xee;" horiz-adv-x="314" vert-adv-y="2457" 
d="M99 0v853h115v-853h-115zM-76 1016l184 231h100l182 -231l-56 -44l-177 179l-182 -172z" />
    <glyph glyph-name="idieresis" unicode="&#xef;" horiz-adv-x="314" vert-adv-y="2457" 
d="M100 0v853h115v-853h-115zM42 1174q31 0 52 -21t21 -52q0 -30 -21 -51q-21 -22 -52 -22q-30 0 -52 22q-21 23 -21 54q0 30 22 50t51 20zM275 1173q28 0 48 -18q25 -21 25 -54q0 -28 -18 -49q-21 -25 -54 -25q-29 0 -50 20q-24 23 -24 57q0 28 20 47q22 22 53 22z" />
    <glyph glyph-name="eth" unicode="&#xf0;" horiz-adv-x="1013" vert-adv-y="2457" 
d="M334 1116l157 101l-84 153l56 35l92 -149l163 97l33 -51l-163 -98l238 -382q123 -197 123 -380q0 -195 -116 -321q-124 -135 -327 -135t-324 134q-55 62 -89 157q-30 83 -30 157q0 116 71 231q60 97 161 149q102 53 222 53q75 0 160 -31l-156 326l-159 -95zM511 763
q-151 0 -249 -110q-82 -92 -82 -221q0 -146 89 -243q92 -99 232 -99q163 0 259 123q72 92 72 220q0 143 -92 237q-91 93 -229 93z" />
    <glyph glyph-name="ntilde" unicode="&#xf1;" horiz-adv-x="866" vert-adv-y="2457" 
d="M100 0v853h115v-110q95 124 257 124q129 0 209 -69q60 -53 78 -141q8 -41 8 -140v-517h-115v512q0 122 -29 171q-47 80 -165 80q-116 0 -183 -78q-60 -69 -60 -236v-449h-115zM188 1020q1 48 18 85q41 97 129 97q24 0 48 -10q22 -8 76 -52q48 -38 78 -38q35 0 53 34
q6 11 10 50h79q-2 -77 -38 -126q-40 -53 -108 -53q-67 0 -128 57q-25 24 -38 32q-12 8 -33 8q-54 0 -65 -84h-81z" />
    <glyph glyph-name="ograve" unicode="&#xf2;" horiz-adv-x="1014" vert-adv-y="2457" 
d="M513 867q208 0 338 -153q99 -117 99 -283q0 -199 -138 -328q-126 -117 -311 -117q-135 0 -243 71q-97 65 -149 174q-45 93 -45 203q0 193 152 324q126 109 297 109zM512 763q-151 0 -249 -110q-82 -92 -82 -221q0 -146 89 -243q92 -99 232 -99q163 0 259 123
q72 92 72 220q0 143 -92 237q-91 93 -229 93zM530 967l-180 237l96 52l136 -259z" />
    <glyph glyph-name="oacute" unicode="&#xf3;" horiz-adv-x="1014" vert-adv-y="2457" 
d="M513 867q208 0 338 -153q99 -117 99 -283q0 -199 -138 -328q-126 -117 -311 -117q-135 0 -243 71q-97 65 -149 174q-45 93 -45 203q0 193 152 324q126 109 297 109zM512 763q-151 0 -249 -110q-82 -92 -82 -221q0 -146 89 -243q92 -99 232 -99q163 0 259 123
q72 92 72 220q0 143 -92 237q-91 93 -229 93zM450 967l-52 30l136 259l96 -52z" />
    <glyph glyph-name="ocircumflex" unicode="&#xf4;" horiz-adv-x="1014" vert-adv-y="2457" 
d="M513 867q208 0 338 -153q99 -117 99 -283q0 -199 -138 -328q-126 -117 -311 -117q-135 0 -243 71q-97 65 -149 174q-45 93 -45 203q0 193 152 324q126 109 297 109zM512 763q-151 0 -249 -110q-82 -92 -82 -221q0 -146 89 -243q92 -99 232 -99q163 0 259 123
q72 92 72 220q0 143 -92 237q-91 93 -229 93zM274 1016l184 231h100l182 -231l-55 -44l-178 179l-181 -172z" />
    <glyph glyph-name="otilde" unicode="&#xf5;" horiz-adv-x="1014" vert-adv-y="2457" 
d="M513 867q208 0 338 -153q99 -117 99 -283q0 -199 -138 -328q-126 -117 -311 -117q-135 0 -243 71q-97 65 -149 174q-45 93 -45 203q0 193 152 324q126 109 297 109zM512 763q-151 0 -249 -110q-82 -92 -82 -221q0 -146 89 -243q92 -99 232 -99q163 0 259 123
q72 92 72 220q0 143 -92 237q-91 93 -229 93zM262 1020q1 48 17 85q42 97 130 97q24 0 48 -10q21 -8 76 -52q48 -38 78 -38q35 0 53 34q6 11 10 50h79q-2 -77 -38 -126q-40 -53 -108 -53q-67 0 -128 57q-25 24 -38 32t-33 8q-54 0 -65 -84h-81z" />
    <glyph glyph-name="odieresis" unicode="&#xf6;" horiz-adv-x="1014" vert-adv-y="2457" 
d="M513 867q208 0 338 -153q99 -117 99 -283q0 -199 -138 -328q-126 -117 -311 -117q-135 0 -243 71q-97 65 -149 174q-45 93 -45 203q0 193 152 324q126 109 297 109zM512 763q-151 0 -249 -110q-82 -92 -82 -221q0 -146 89 -243q92 -99 232 -99q163 0 259 123
q72 92 72 220q0 143 -92 237q-91 93 -229 93zM337 1174q31 0 52 -21t21 -52q0 -30 -21 -51q-21 -22 -52 -22q-30 0 -52 22q-21 23 -21 54q0 30 22 50t51 20zM679 1173q28 0 48 -18q25 -21 25 -54q0 -28 -18 -49q-21 -25 -55 -25q-28 0 -49 20q-24 23 -24 57q0 28 20 47
q22 22 53 22z" />
    <glyph glyph-name="divide" unicode="&#xf7;" horiz-adv-x="915" vert-adv-y="2457" 
d="M61 625v116h792v-116h-792zM456 495q40 0 68 -27q30 -29 30 -71q0 -39 -28 -67q-28 -29 -69 -29q-39 0 -68 28q-29 29 -29 71q0 38 26 65q29 30 70 30zM456 1064q40 0 68 -27q30 -29 30 -71q0 -39 -28 -67q-28 -29 -69 -29q-39 0 -68 28q-29 29 -29 71q0 38 26 65
q29 30 70 30z" />
    <glyph glyph-name="oslash" unicode="&#xf8;" horiz-adv-x="1014" vert-adv-y="2457" 
d="M84 75l74 74q-94 126 -94 280q0 200 152 330q127 108 298 108q143 0 268 -88l72 72l76 -73l-72 -73q51 -71 68 -125q24 -72 24 -150q0 -198 -138 -327q-126 -117 -307 -117q-148 0 -272 88l-73 -74zM238 230l467 471q-91 62 -191 62q-154 0 -252 -110q-81 -92 -81 -227
q0 -97 57 -196zM778 624l-467 -471q86 -63 193 -63q162 0 257 123q72 93 72 220q0 103 -55 191z" />
    <glyph glyph-name="ugrave" unicode="&#xf9;" horiz-adv-x="855" vert-adv-y="2457" 
d="M100 853h115v-509q0 -113 27 -164q25 -48 84 -72q46 -18 99 -18q133 0 185 88q30 51 30 171v504h115v-503q0 -112 -11 -153q-34 -120 -143 -174q-75 -37 -174 -37q-181 0 -265 106q-55 70 -60 168q-2 31 -2 78v515zM492 967l-180 237l96 52l135 -259z" />
    <glyph glyph-name="uacute" unicode="&#xfa;" horiz-adv-x="855" vert-adv-y="2457" 
d="M100 853h115v-509q0 -113 27 -164q25 -48 84 -72q46 -18 99 -18q133 0 185 88q30 51 30 171v504h115v-503q0 -112 -11 -153q-34 -120 -143 -174q-75 -37 -174 -37q-181 0 -265 106q-55 70 -60 168q-2 31 -2 78v515zM411 967l-51 30l135 259l96 -52z" />
    <glyph glyph-name="ucircumflex" unicode="&#xfb;" horiz-adv-x="855" vert-adv-y="2457" 
d="M100 853h115v-509q0 -113 27 -164q25 -48 84 -72q46 -18 99 -18q133 0 185 88q30 51 30 171v504h115v-503q0 -112 -11 -153q-34 -120 -143 -174q-75 -37 -174 -37q-181 0 -265 106q-55 70 -60 168q-2 31 -2 78v515zM195 1016l184 231h100l182 -231l-56 -44l-177 179
l-182 -172z" />
    <glyph glyph-name="udieresis" unicode="&#xfc;" horiz-adv-x="855" vert-adv-y="2457" 
d="M100 853h115v-509q0 -113 27 -164q25 -48 84 -72q46 -18 99 -18q133 0 185 88q30 51 30 171v504h115v-503q0 -112 -11 -153q-34 -120 -143 -174q-75 -37 -174 -37q-181 0 -265 106q-55 70 -60 168q-2 31 -2 78v515zM258 1174q30 0 52 -21q21 -21 21 -52q0 -29 -21 -51
t-52 -22q-30 0 -52 22q-21 23 -21 54t22 50q22 20 51 20zM600 1173q28 0 48 -18q25 -21 25 -54q0 -28 -18 -49q-21 -25 -54 -25q-29 0 -50 20q-24 23 -24 57q0 27 20 47q22 22 53 22z" />
    <glyph glyph-name="yacute" unicode="&#xfd;" horiz-adv-x="854" vert-adv-y="2457" 
d="M194 -382l209 491l-396 744h130l327 -614q17 45 32 79l231 535h121l-535 -1235h-119zM411 967l-51 30l135 259l96 -52z" />
    <glyph glyph-name="thorn" unicode="&#xfe;" horiz-adv-x="976" vert-adv-y="2457" 
d="M100 -382v1918h115v-821q49 60 92 90q89 62 205 62q193 0 310 -144q91 -113 91 -295q0 -200 -115 -322q-113 -120 -288 -120q-132 0 -227 77q-30 24 -68 70v-515h-115zM504 763q-147 0 -229 -111q-60 -81 -60 -225q0 -174 78 -252q84 -85 204 -85q160 0 244 127
q55 83 55 210q0 161 -83 250q-80 86 -209 86z" />
    <glyph glyph-name="ydieresis" unicode="&#xff;" horiz-adv-x="854" vert-adv-y="2457" 
d="M194 -382l209 491l-396 744h130l327 -614q17 45 32 79l231 535h121l-535 -1235h-119zM258 1174q30 0 52 -21q21 -21 21 -52q0 -29 -21 -51t-52 -22q-30 0 -52 22q-21 23 -21 54q0 30 22 50t51 20zM600 1173q28 0 48 -18q25 -21 25 -54q0 -28 -18 -49q-21 -25 -54 -25
q-29 0 -50 20q-24 23 -24 57q0 28 20 47q22 22 53 22z" />
    <glyph glyph-name="Amacron" unicode="&#x100;" horiz-adv-x="1181" vert-adv-y="2457" 
d="M589 1410l592 -1410h-130l-172 410h-572l-170 -410h-130zM834 516l-121 292q-89 212 -123 308q-23 -72 -106 -278l-133 -322h483zM256 1575v93h669v-93h-669z" />
    <glyph glyph-name="amacron" unicode="&#x101;" horiz-adv-x="976" vert-adv-y="2457" 
d="M761 720v133h115v-853h-115v133q-117 -147 -299 -147q-185 0 -300 135q-99 116 -99 298q0 197 114 325q110 123 285 123q183 0 299 -147zM476 764q-155 0 -238 -126q-58 -89 -58 -209q0 -180 104 -270q80 -70 188 -70q124 0 209 85q81 82 81 257q0 152 -72 238
q-80 95 -214 95zM181 1049v93h614v-93h-614z" />
    <glyph glyph-name="Abreve" unicode="&#x102;" horiz-adv-x="1181" vert-adv-y="2457" 
d="M589 1410l592 -1410h-130l-172 410h-572l-170 -410h-130zM834 516l-121 292q-89 212 -123 308q-23 -72 -106 -278l-133 -322h483zM758 1713h78q-1 -73 -40 -126q-31 -41 -84 -67q-58 -27 -121 -27q-85 0 -154 46q-90 58 -92 174h79q24 -129 167 -129t167 129z" />
    <glyph glyph-name="abreve" unicode="&#x103;" horiz-adv-x="976" vert-adv-y="2457" 
d="M761 720v133h115v-853h-115v133q-117 -147 -299 -147q-185 0 -300 135q-99 116 -99 298q0 197 114 325q110 123 285 123q183 0 299 -147zM476 764q-155 0 -238 -126q-58 -89 -58 -209q0 -180 104 -270q80 -70 188 -70q124 0 209 85q81 82 81 257q0 152 -72 238
q-80 95 -214 95zM655 1194h79q-2 -73 -41 -126q-30 -41 -84 -67q-58 -27 -121 -27q-85 0 -154 46q-89 59 -92 174h79q7 -39 28 -66q27 -37 57 -50q31 -13 82 -13q73 0 108 29q48 40 59 100z" />
    <glyph glyph-name="Aogonek" unicode="&#x104;" horiz-adv-x="1181" vert-adv-y="2457" 
d="M7 0l582 1410l592 -1410h-6q-67 -83 -67 -162q0 -69 47 -102q29 -20 63 -20q16 0 39 9v-93q-43 -19 -81 -19q-105 0 -152 89q-21 40 -21 93q0 100 76 205h-28l-172 410h-572l-170 -410h-130zM834 516l-121 292q-89 212 -123 308q-24 -72 -106 -278l-133 -322h483z" />
    <glyph glyph-name="aogonek" unicode="&#x105;" horiz-adv-x="976" vert-adv-y="2457" 
d="M761 853h115v-853q-73 -62 -73 -142q0 -61 47 -89q30 -18 64 -18q16 0 39 8v-81q-43 -18 -82 -18q-105 0 -152 78q-21 36 -21 82q0 89 76 180h-13v133q-117 -147 -299 -147q-185 0 -300 135q-99 116 -99 298q0 197 114 325q110 123 285 123q183 0 299 -147v133zM476 764
q-155 0 -238 -126q-58 -89 -58 -209q0 -180 104 -270q80 -70 188 -70q124 0 209 85q81 82 81 257q0 152 -72 238q-80 95 -214 95z" />
    <glyph glyph-name="Cacute" unicode="&#x106;" horiz-adv-x="1204" vert-adv-y="2457" 
d="M1122 55q-155 -75 -340 -75q-338 0 -544 244q-170 201 -170 456q0 181 91 344q102 184 280 279q156 83 346 83q180 0 337 -76v-135q-165 102 -341 102q-162 0 -297 -80q-140 -82 -216 -229q-68 -131 -68 -286q0 -265 187 -438q167 -155 401 -155q167 0 334 104v-138z
M770 1493l-52 30l136 260l96 -52z" />
    <glyph glyph-name="cacute" unicode="&#x107;" horiz-adv-x="819" vert-adv-y="2457" 
d="M764 791v-144q-51 49 -88 72q-73 44 -163 44q-155 0 -252 -115q-80 -94 -80 -224q0 -160 113 -257q88 -77 214 -77q148 0 256 123v-144q-108 -83 -261 -83q-194 0 -319 133q-120 128 -120 306q0 200 151 331q126 111 301 111q97 0 187 -43q23 -12 61 -33zM488 967l-51 30
l136 259l95 -52z" />
    <glyph glyph-name="Ccircumflex" unicode="&#x108;" horiz-adv-x="1204" vert-adv-y="2457" 
d="M1122 55q-155 -75 -340 -75q-338 0 -544 244q-170 201 -170 456q0 181 91 344q102 184 280 279q156 83 346 83q180 0 337 -76v-135q-165 102 -341 102q-162 0 -297 -80q-140 -82 -216 -229q-68 -131 -68 -286q0 -265 187 -438q167 -155 401 -155q167 0 334 104v-138z
M533 1543l184 231h100l182 -231l-56 -44l-177 179l-182 -172z" />
    <glyph glyph-name="Cdotaccent" unicode="&#x10a;" horiz-adv-x="1204" vert-adv-y="2457" 
d="M1122 55q-155 -75 -340 -75q-338 0 -544 244q-170 201 -170 456q0 181 91 344q102 184 280 279q156 83 346 83q180 0 337 -76v-135q-165 102 -341 102q-162 0 -297 -80q-140 -82 -216 -229q-68 -131 -68 -286q0 -265 187 -438q167 -155 401 -155q167 0 334 104v-138z
M767 1699q28 0 48 -18q25 -21 25 -54q0 -28 -18 -49q-21 -25 -54 -25q-29 0 -50 20q-24 23 -24 57q0 28 20 47q22 22 53 22z" />
    <glyph glyph-name="cdotaccent" unicode="&#x10b;" horiz-adv-x="819" vert-adv-y="2457" 
d="M764 791v-144q-51 49 -88 72q-73 44 -163 44q-155 0 -252 -115q-80 -94 -80 -224q0 -160 113 -257q88 -77 214 -77q148 0 256 123v-144q-108 -83 -261 -83q-194 0 -319 133q-120 128 -120 306q0 200 151 331q126 111 301 111q97 0 187 -43q23 -12 61 -33zM520 1173
q28 0 48 -18q25 -21 25 -54q0 -28 -18 -49q-21 -25 -54 -25q-29 0 -50 20q-24 23 -24 57q0 27 20 47q22 22 53 22z" />
    <glyph glyph-name="Ccaron" unicode="&#x10c;" horiz-adv-x="1204" vert-adv-y="2457" 
d="M1122 55q-155 -75 -340 -75q-338 0 -544 244q-170 201 -170 456q0 181 91 344q102 184 280 279q156 83 346 83q180 0 337 -76v-135q-165 102 -341 102q-162 0 -297 -80q-140 -82 -216 -229q-68 -131 -68 -286q0 -265 187 -438q167 -155 401 -155q167 0 334 104v-138z
M999 1729l-185 -231h-99l-182 231l55 44l178 -179l181 172z" />
    <glyph glyph-name="ccaron" unicode="&#x10d;" horiz-adv-x="819" vert-adv-y="2457" 
d="M764 791v-144q-51 49 -88 72q-73 44 -163 44q-155 0 -252 -115q-80 -94 -80 -224q0 -160 113 -257q88 -77 214 -77q148 0 256 123v-144q-108 -83 -261 -83q-194 0 -319 133q-120 128 -120 306q0 200 151 331q126 111 301 111q97 0 187 -43q23 -12 61 -33zM752 1203
l-185 -231h-99l-182 231l55 44l178 -179l181 172z" />
    <glyph glyph-name="Dcaron" unicode="&#x10e;" horiz-adv-x="1198" vert-adv-y="2457" 
d="M130 0v1365h196q128 0 200 -7q207 -21 336 -116q139 -102 210 -265q58 -133 58 -292q0 -250 -140 -435q-157 -207 -394 -238q-96 -12 -198 -12h-268zM253 109h139q125 0 184 9q201 29 320 200q101 146 101 362q0 232 -118 383q-125 161 -369 186q-73 7 -183 7h-74v-1147z
M764 1729l-184 -231h-100l-182 231l56 44l177 -179l182 172z" />
    <glyph glyph-name="dcaron" unicode="&#x10f;" horiz-adv-x="1274" vert-adv-y="2457" 
d="M876 0h-115v127q-58 -61 -91 -84q-82 -57 -205 -57q-201 0 -314 148q-88 116 -88 291q0 202 120 322q119 120 275 120q121 0 225 -74q42 -30 78 -77v820h115v-1536zM478 763q-154 0 -243 -129q-55 -79 -55 -202q0 -164 81 -252q84 -91 213 -91q141 0 225 106
q62 78 62 221q0 159 -69 244q-46 57 -113 83q-52 20 -101 20zM976 1135l177 271l121 -45l-220 -262z" />
    <glyph glyph-name="Dcroat" unicode="&#x110;" horiz-adv-x="1198" vert-adv-y="2457" 
d="M-27 634v96h157v635h196q128 0 200 -7q206 -21 336 -116q139 -102 210 -266q58 -132 58 -291q0 -251 -140 -435q-157 -207 -395 -238q-95 -12 -197 -12h-268v634h-157zM253 730h375v-96h-375v-525h139q125 0 184 9q201 29 320 200q101 145 101 362q0 232 -118 383
q-125 161 -369 186q-73 7 -183 7h-74v-526z" />
    <glyph glyph-name="dcroat" unicode="&#x111;" horiz-adv-x="976" vert-adv-y="2457" 
d="M761 1153h-405v96h405v287h115v-287h135v-96h-135v-1153h-115v127q-58 -62 -91 -84q-81 -57 -204 -57q-201 0 -314 148q-88 116 -88 291q0 202 120 322q119 120 275 120q120 0 224 -74q42 -30 78 -77v437zM479 763q-154 0 -243 -129q-55 -79 -55 -202q0 -163 81 -252
q83 -91 212 -91q141 0 225 106q62 78 62 221q0 159 -69 244q-46 57 -113 83q-52 20 -100 20z" />
    <glyph glyph-name="Emacron" unicode="&#x112;" horiz-adv-x="874" vert-adv-y="2457" 
d="M129 0v1365h663v-109h-540v-468h540v-109h-540v-570h540v-109h-663zM126 1575v93h669v-93h-669z" />
    <glyph glyph-name="emacron" unicode="&#x113;" horiz-adv-x="897" vert-adv-y="2457" 
d="M832 415h-651q2 -111 40 -184q74 -142 237 -142q156 0 253 162l93 -51q-128 -214 -348 -214q-201 0 -311 155q-81 116 -81 288q0 185 97 302q113 136 298 136q149 0 251 -96q97 -92 117 -248q5 -41 5 -108zM181 513h531q-5 78 -39 133q-33 51 -89 83q-61 34 -134 34
q-156 0 -234 -141q-28 -50 -35 -109zM141 1049v93h614v-93h-614z" />
    <glyph glyph-name="Ebreve" unicode="&#x114;" horiz-adv-x="874" vert-adv-y="2457" 
d="M130 0v1365h662v-109h-539v-468h539v-109h-539v-570h539v-109h-662zM631 1713h79q-1 -73 -40 -126q-31 -41 -84 -67q-58 -27 -121 -27q-85 0 -154 46q-90 58 -92 174h79q24 -129 167 -129q142 0 166 129z" />
    <glyph glyph-name="Edotaccent" unicode="&#x116;" horiz-adv-x="874" vert-adv-y="2457" 
d="M130 0v1365h662v-109h-539v-468h539v-109h-539v-570h539v-109h-662zM466 1699q27 0 48 -18q25 -21 25 -54q0 -28 -18 -49q-21 -25 -54 -25q-29 0 -50 20q-24 23 -24 57q0 28 20 47q22 22 53 22z" />
    <glyph glyph-name="edotaccent" unicode="&#x117;" horiz-adv-x="897" vert-adv-y="2457" 
d="M832 415h-651q2 -111 40 -184q74 -142 237 -142q156 0 253 162l93 -51q-128 -214 -348 -214q-201 0 -311 155q-81 116 -81 288q0 185 97 302q113 136 298 136q149 0 251 -96q97 -92 117 -248q5 -41 5 -108zM181 513h531q-5 78 -39 133q-33 51 -89 83q-61 34 -134 34
q-156 0 -234 -141q-28 -50 -35 -109zM463 1173q28 0 48 -18q25 -21 25 -54q0 -28 -18 -49q-21 -25 -55 -25q-28 0 -49 20q-24 23 -24 57q0 28 20 47q22 22 53 22z" />
    <glyph glyph-name="Eogonek" unicode="&#x118;" horiz-adv-x="874" vert-adv-y="2457" 
d="M130 0v1365h662v-109h-539v-468h539v-109h-539v-570h539v-109q-73 -71 -73 -163q0 -68 47 -101q29 -20 63 -20q16 0 39 9v-93q-43 -19 -81 -19q-105 0 -152 89q-21 40 -21 93q0 101 76 205h-560z" />
    <glyph glyph-name="eogonek" unicode="&#x119;" horiz-adv-x="897" vert-adv-y="2457" 
d="M833 415h-651q1 -111 39 -183q75 -142 238 -142q155 0 252 161l93 -51q-112 -189 -309 -212q-58 -76 -58 -131q0 -62 47 -90q30 -18 63 -18q16 0 39 7v-81q-43 -17 -81 -17q-105 0 -152 78q-21 36 -21 82q0 86 69 172q-100 15 -168 64q-169 121 -169 375q0 185 97 302
q113 136 299 136q148 0 250 -96q98 -92 117 -248q5 -42 6 -108zM182 513h531q-5 78 -40 133q-33 51 -88 83q-61 34 -135 34q-156 0 -234 -141q-27 -50 -34 -109z" />
    <glyph glyph-name="Ecaron" unicode="&#x11a;" horiz-adv-x="874" vert-adv-y="2457" 
d="M130 0v1365h662v-109h-539v-468h539v-109h-539v-570h539v-109h-662zM697 1729l-184 -231h-99l-182 231l55 44l178 -179l181 172z" />
    <glyph glyph-name="ecaron" unicode="&#x11b;" horiz-adv-x="897" vert-adv-y="2457" 
d="M832 415h-651q2 -111 40 -184q74 -142 237 -142q156 0 253 162l93 -51q-128 -214 -348 -214q-201 0 -311 155q-81 116 -81 288q0 185 97 302q113 136 298 136q149 0 251 -96q97 -92 117 -248q5 -41 5 -108zM181 513h531q-5 78 -39 133q-33 51 -89 83q-61 34 -134 34
q-156 0 -234 -141q-28 -50 -35 -109zM708 1203l-184 -231h-99l-182 231l55 44l178 -179l181 172z" />
    <glyph glyph-name="Gcircumflex" unicode="&#x11c;" horiz-adv-x="1493" vert-adv-y="2457" 
d="M1336 1138l-81 -94q-64 86 -148 139q-149 93 -322 93q-300 0 -467 -228q-118 -160 -118 -369q0 -249 161 -411q93 -94 220 -141q104 -38 215 -38q184 0 318 101q138 105 178 296q8 36 15 105h-368v109h486v-42q0 -193 -80 -353q-76 -155 -224 -240q-146 -85 -334 -85
q-243 0 -428 130q-139 98 -217 256q-74 149 -74 315q0 162 69 306q93 194 275 301q166 97 371 97q334 0 553 -247zM554 1543l185 231h99l182 -231l-55 -44l-178 179l-181 -172z" />
    <glyph glyph-name="gcircumflex" unicode="&#x11d;" horiz-adv-x="976" vert-adv-y="2457" 
d="M95 -76h113q15 -87 63 -134q78 -75 214 -75q175 0 242 126q34 65 34 222v82q-102 -159 -293 -159q-184 0 -298 132q-107 125 -107 311q0 136 65 250q57 100 162 151q77 37 172 37q127 0 225 -70q32 -23 74 -66v122h115v-755q0 -141 -10 -195q-26 -140 -125 -216
q-98 -76 -263 -76q-238 0 -332 150q-41 66 -51 163zM477 763q-124 0 -213 -93q-83 -86 -83 -232q0 -177 101 -271q84 -77 196 -77q122 0 198 79q85 89 85 271q0 115 -46 192q-39 65 -113 102q-61 29 -125 29zM255 1016l184 231h100l182 -231l-56 -44l-177 179l-182 -172z
" />
    <glyph glyph-name="Gbreve" unicode="&#x11e;" horiz-adv-x="1493" vert-adv-y="2457" 
d="M1336 1138l-81 -94q-64 86 -148 139q-149 93 -322 93q-300 0 -467 -228q-118 -160 -118 -369q0 -249 161 -411q93 -94 220 -141q104 -38 215 -38q184 0 318 101q138 105 178 296q8 36 15 105h-368v109h486v-42q0 -193 -80 -353q-76 -155 -224 -240q-146 -85 -334 -85
q-243 0 -428 130q-139 98 -217 256q-74 149 -74 315q0 162 69 306q93 194 275 301q166 97 371 97q334 0 553 -247zM940 1713h79q-1 -73 -40 -126q-31 -41 -84 -67q-58 -27 -121 -27q-85 0 -154 46q-90 58 -92 174h79q24 -129 167 -129t166 129z" />
    <glyph glyph-name="gbreve" unicode="&#x11f;" horiz-adv-x="976" vert-adv-y="2457" 
d="M95 -76h113q15 -87 63 -134q78 -75 214 -75q175 0 242 126q34 65 34 222v82q-102 -159 -293 -159q-184 0 -298 132q-107 125 -107 311q0 136 65 250q57 100 162 151q77 37 172 37q127 0 225 -70q32 -23 74 -66v122h115v-755q0 -141 -10 -195q-26 -140 -125 -216
q-98 -76 -263 -76q-238 0 -332 150q-41 66 -51 163zM477 763q-124 0 -213 -93q-83 -86 -83 -232q0 -177 101 -271q84 -77 196 -77q122 0 198 79q85 89 85 271q0 115 -46 192q-39 65 -113 102q-61 29 -125 29zM655 1194h79q-2 -73 -41 -126q-30 -41 -84 -67q-58 -27 -121 -27
q-85 0 -154 46q-89 59 -92 174h79q7 -39 28 -66q27 -37 57 -50q31 -13 82 -13q73 0 108 29q48 40 59 100z" />
    <glyph glyph-name="Gdotaccent" unicode="&#x120;" horiz-adv-x="1493" vert-adv-y="2457" 
d="M1336 1138l-81 -94q-64 86 -148 139q-149 93 -322 93q-300 0 -467 -228q-118 -160 -118 -369q0 -249 161 -411q93 -94 220 -141q104 -38 215 -38q184 0 318 101q138 105 178 296q8 36 15 105h-368v109h486v-42q0 -193 -80 -353q-76 -155 -224 -240q-146 -85 -334 -85
q-243 0 -428 130q-139 98 -217 256q-74 149 -74 315q0 162 69 306q93 194 275 301q166 97 371 97q334 0 553 -247zM775 1699q27 0 48 -18q25 -21 25 -54q0 -28 -18 -49q-21 -25 -54 -25q-29 0 -50 20q-24 23 -24 57q0 28 20 47q22 22 53 22z" />
    <glyph glyph-name="gdotaccent" unicode="&#x121;" horiz-adv-x="976" vert-adv-y="2457" 
d="M95 -76h113q15 -87 63 -134q78 -75 214 -75q175 0 242 126q34 65 34 222v82q-102 -159 -293 -159q-184 0 -298 132q-107 125 -107 311q0 136 65 250q57 100 162 151q77 37 172 37q127 0 225 -70q32 -23 74 -66v122h115v-755q0 -141 -10 -195q-26 -140 -125 -216
q-98 -76 -263 -76q-238 0 -332 150q-41 66 -51 163zM477 763q-124 0 -213 -93q-83 -86 -83 -232q0 -177 101 -271q84 -77 196 -77q122 0 198 79q85 89 85 271q0 115 -46 192q-39 65 -113 102q-61 29 -125 29zM489 1173q28 0 48 -18q25 -21 25 -54q0 -28 -18 -49
q-21 -25 -54 -25q-29 0 -50 20q-24 23 -24 57q0 27 20 47q22 22 53 22z" />
    <glyph glyph-name="uni0122" unicode="&#x122;" horiz-adv-x="1493" vert-adv-y="2457" 
d="M1336 1138l-81 -94q-64 86 -148 139q-149 93 -322 93q-300 0 -467 -228q-118 -160 -118 -369q0 -249 161 -411q93 -94 220 -141q104 -38 215 -38q184 0 318 101q138 105 178 296q8 36 15 105h-368v109h486v-42q0 -193 -80 -353q-76 -155 -224 -240q-146 -85 -334 -85
q-243 0 -428 130q-139 98 -217 256q-74 149 -74 315q0 162 69 306q93 194 275 301q166 97 371 97q334 0 553 -247zM567 -366l178 271l120 -46l-219 -262z" />
    <glyph glyph-name="uni0123" unicode="&#x123;" horiz-adv-x="976" vert-adv-y="2457" 
d="M95 -76h113q15 -87 63 -134q78 -75 214 -75q175 0 242 126q34 65 34 222v82q-102 -159 -293 -159q-184 0 -298 132q-107 125 -107 311q0 136 65 250q57 100 162 151q77 37 172 37q127 0 225 -70q32 -23 74 -66v122h115v-755q0 -141 -10 -195q-26 -140 -125 -216
q-98 -76 -263 -76q-238 0 -332 150q-41 66 -51 163zM477 763q-124 0 -213 -93q-83 -86 -83 -232q0 -177 101 -271q84 -77 196 -77q122 0 198 79q85 89 85 271q0 115 -46 192q-39 65 -113 102q-61 29 -125 29zM677 1261l-177 -271l-120 45l219 262z" />
    <glyph glyph-name="Hcircumflex" unicode="&#x124;" horiz-adv-x="1256" vert-adv-y="2457" 
d="M130 0v1365h123v-566h751v566h123v-1365h-123v690h-751v-690h-123zM396 1543l184 231h99l182 -231l-55 -44l-178 179l-181 -172z" />
    <glyph glyph-name="Hbar" unicode="&#x126;" horiz-adv-x="1256" vert-adv-y="2457" 
d="M129 1057h-109v106h109v202h123v-202h751v202h123v-202h109v-106h-109v-1057h-123v690h-751v-690h-123v1057zM252 1057v-258h751v258h-751z" />
    <glyph glyph-name="hbar" unicode="&#x127;" horiz-adv-x="867" vert-adv-y="2457" 
d="M100 1153h-140v96h140v287h115v-287h400v-96h-400v-412q88 126 259 126q127 0 209 -69q70 -60 82 -178q2 -26 2 -87v-533h-115v537q0 85 -21 134q-39 92 -169 92q-100 0 -169 -59q-78 -67 -78 -263v-441h-115v1153z" />
    <glyph glyph-name="Imacron" unicode="&#x12a;" horiz-adv-x="382" vert-adv-y="2457" 
d="M130 0v1365h123v-1365h-123zM-49 1576v93h462v-93h-462z" />
    <glyph glyph-name="imacron" unicode="&#x12b;" horiz-adv-x="314" vert-adv-y="2457" 
d="M99 0v853h115v-853h-115zM-92 1049v93h462v-93h-462z" />
    <glyph glyph-name="ibreve" unicode="&#x12d;" horiz-adv-x="314" vert-adv-y="2457" 
d="M99 0v853h115v-853h-115zM323 1194h79q-1 -73 -40 -126q-31 -41 -84 -67q-58 -27 -121 -27q-85 0 -154 46q-90 59 -92 174h79q7 -39 27 -66q27 -37 57 -50q32 -13 83 -13q73 0 108 29q47 40 58 100z" />
    <glyph glyph-name="Iogonek" unicode="&#x12e;" horiz-adv-x="382" vert-adv-y="2457" 
d="M329 -244v-81q-43 -17 -82 -17q-105 0 -152 78q-21 36 -21 82q0 89 79 182h-24v1365h123v-1365q-73 -66 -73 -145q0 -61 47 -88q30 -18 64 -18q16 0 39 7z" />
    <glyph glyph-name="iogonek" unicode="&#x12f;" horiz-adv-x="314" vert-adv-y="2457" 
d="M293 -244v-81q-43 -17 -81 -17q-106 0 -153 78q-21 36 -21 82q0 89 79 182h-18v853h115v-853q-71 -71 -71 -145q0 -60 48 -88q29 -18 63 -18q16 0 39 7zM157 1307q33 0 56 -23q24 -23 24 -57q0 -32 -22 -56q-24 -26 -59 -26q-32 0 -56 24q-25 24 -25 60q0 33 24 55
q25 23 58 23z" />
    <glyph glyph-name="Idotaccent" unicode="&#x130;" horiz-adv-x="382" vert-adv-y="2457" 
d="M129 0v1365h123v-1365h-123zM192 1699q27 0 48 -18q25 -21 25 -54q0 -28 -18 -49q-21 -25 -54 -25q-29 0 -50 20q-24 23 -24 57q0 28 20 47q22 22 53 22z" />
    <glyph glyph-name="dotlessi" unicode="&#x131;" horiz-adv-x="314" vert-adv-y="2457" 
d="M100 0v853h115v-853h-115z" />
    <glyph glyph-name="IJ" unicode="&#x132;" horiz-adv-x="1038" vert-adv-y="2457" 
d="M130 0v1365h123v-1365h-123zM389 96l81 72q36 -31 58 -45q48 -31 99 -31q73 0 124 53q38 41 45 132q3 33 3 78v1010h123v-1012q0 -52 -13 -126q-13 -82 -37 -120q-37 -60 -113 -95q-61 -29 -130 -29q-139 0 -240 113z" />
    <glyph glyph-name="ij" unicode="&#x133;" horiz-adv-x="628" vert-adv-y="2457" 
d="M100 0v853h115v-853h-115zM157 1307q33 0 56 -23q24 -23 24 -57q0 -32 -22 -56q-24 -26 -59 -26q-32 0 -56 24q-25 24 -25 60q0 33 24 55q25 23 58 23zM470 1308q33 0 57 -23q24 -24 24 -58t-23 -57q-24 -24 -57 -24q-34 0 -57 23q-25 23 -25 58q0 32 22 56q24 25 59 25z
M528 853v-1038q0 -97 -29 -140q-38 -57 -102 -57q-90 0 -175 84l62 75q50 -51 88 -51q25 0 34 29q7 24 7 92v1006h115z" />
    <glyph glyph-name="uni0136" unicode="&#x136;" horiz-adv-x="963" vert-adv-y="2457" 
d="M130 0v1365h123v-608l498 608h162l-510 -619l546 -746h-150l-546 746v-746h-123zM275 -366l178 271l120 -46l-219 -262z" />
    <glyph glyph-name="uni0137" unicode="&#x137;" horiz-adv-x="739" vert-adv-y="2457" 
d="M100 0v1536h115v-1099l341 416h148l-343 -417l371 -436h-146l-371 437v-437h-115zM163 -366l178 271l120 -46l-219 -262z" />
    <glyph glyph-name="kgreenlandic" unicode="&#x138;" horiz-adv-x="739" vert-adv-y="2457" 
d="M100 0v853h115v-416l341 416h148l-343 -417l371 -436h-146l-371 437v-437h-115z" />
    <glyph glyph-name="Lacute" unicode="&#x139;" horiz-adv-x="703" vert-adv-y="2457" 
d="M130 0v1365h123v-1256h423v-109h-546zM329 1493l-52 30l136 260l95 -52z" />
    <glyph glyph-name="lacute" unicode="&#x13a;" horiz-adv-x="314" vert-adv-y="2457" 
d="M99 0v1536h115v-1536h-115zM92 1548l-51 30l136 259l95 -52z" />
    <glyph glyph-name="uni013B" unicode="&#x13b;" horiz-adv-x="703" vert-adv-y="2457" 
d="M130 0v1365h123v-1256h423v-109h-546zM146 -366l177 271l120 -46l-219 -262z" />
    <glyph glyph-name="uni013C" unicode="&#x13c;" horiz-adv-x="314" vert-adv-y="2457" 
d="M100 0v1536h115v-1536h-115zM-49 -366l177 271l121 -46l-220 -262z" />
    <glyph glyph-name="Lcaron" unicode="&#x13d;" horiz-adv-x="703" vert-adv-y="2457" 
d="M130 0v1365h123v-1256h423v-109h-546zM391 1135l178 271l120 -45l-219 -262z" />
    <glyph glyph-name="lcaron" unicode="&#x13e;" horiz-adv-x="612" vert-adv-y="2457" 
d="M100 0v1536h115v-1536h-115zM314 1135l178 271l120 -45l-220 -262z" />
    <glyph glyph-name="Ldot" unicode="&#x13f;" horiz-adv-x="703" vert-adv-y="2457" 
d="M130 0v1365h123v-1256h423v-109h-546zM547 780q40 0 68 -27q30 -29 30 -71q0 -39 -28 -67q-28 -29 -69 -29q-39 0 -68 28q-29 29 -29 71q0 38 26 65q29 30 70 30z" />
    <glyph glyph-name="ldot" unicode="&#x140;" horiz-adv-x="508" vert-adv-y="2457" 
d="M100 0v1536h115v-1536h-115zM410 780q40 0 68 -27q30 -29 30 -71q0 -39 -28 -67q-28 -29 -69 -29q-39 0 -67 28q-30 29 -30 71q0 38 26 65q30 30 70 30z" />
    <glyph glyph-name="Lslash" unicode="&#x141;" horiz-adv-x="703" vert-adv-y="2457" 
d="M130 406l-82 -69v136l82 69v823h123v-720l275 231v-137l-275 -230v-400h423v-109h-546v406z" />
    <glyph glyph-name="lslash" unicode="&#x142;" horiz-adv-x="314" vert-adv-y="2457" 
d="M99 572l-109 -92v137l109 91v828h115v-731l109 91v-134l-109 -94v-668h-115v572z" />
    <glyph glyph-name="Nacute" unicode="&#x143;" horiz-adv-x="1406" vert-adv-y="2457" 
d="M130 0v1406l965 -1075q47 -52 68 -90q-9 84 -9 203v921h123v-1420l-947 1062q-51 59 -85 108q9 -46 9 -108l-1 -62v-945h-123zM639 1493l-51 30l135 260l96 -52z" />
    <glyph glyph-name="nacute" unicode="&#x144;" horiz-adv-x="866" vert-adv-y="2457" 
d="M100 0v853h115v-110q95 124 257 124q129 0 209 -69q60 -53 78 -141q8 -41 8 -140v-517h-115v512q0 122 -29 171q-47 80 -165 80q-116 0 -183 -78q-60 -69 -60 -236v-449h-115zM417 967l-52 30l136 259l96 -52z" />
    <glyph glyph-name="uni0145" unicode="&#x145;" horiz-adv-x="1406" vert-adv-y="2457" 
d="M130 0v1406l965 -1075q47 -52 68 -90q-9 84 -9 203v921h123v-1420l-947 1062q-51 59 -85 108q9 -46 9 -108l-1 -62v-945h-123zM497 -366l178 271l120 -46l-220 -262z" />
    <glyph glyph-name="uni0146" unicode="&#x146;" horiz-adv-x="866" vert-adv-y="2457" 
d="M100 0v853h115v-110q95 124 257 124q129 0 209 -69q60 -53 78 -141q8 -41 8 -140v-517h-115v512q0 122 -29 171q-47 80 -165 80q-116 0 -183 -78q-60 -69 -60 -236v-449h-115zM227 -366l177 271l121 -46l-220 -262z" />
    <glyph glyph-name="Ncaron" unicode="&#x147;" horiz-adv-x="1406" vert-adv-y="2457" 
d="M130 0v1406l965 -1075q47 -52 68 -90q-9 84 -9 203v921h123v-1420l-947 1062q-51 59 -85 108q9 -46 9 -108l-1 -62v-945h-123zM936 1729l-184 -231h-99l-182 231l55 44l178 -179l181 172z" />
    <glyph glyph-name="ncaron" unicode="&#x148;" horiz-adv-x="866" vert-adv-y="2457" 
d="M100 0v853h115v-110q95 124 257 124q129 0 209 -69q60 -53 78 -141q8 -41 8 -140v-517h-115v512q0 122 -29 171q-47 80 -165 80q-116 0 -183 -78q-60 -69 -60 -236v-449h-115zM694 1203l-185 -231h-99l-182 231l55 44l178 -179l181 172z" />
    <glyph glyph-name="napostrophe" unicode="&#x149;" horiz-adv-x="1057" vert-adv-y="2457" 
d="M26 915l177 475l121 -45l-220 -465zM291 0v853h115v-110q95 124 256 124q129 0 209 -69q60 -52 78 -141q8 -41 8 -140v-517h-115v512q0 122 -29 171q-47 80 -164 80q-116 0 -183 -78q-60 -69 -60 -236v-449h-115z" />
    <glyph glyph-name="Eng" unicode="&#x14a;" horiz-adv-x="1158" vert-adv-y="2457" 
d="M116 0v1365h123v-105q45 44 89 68q101 57 253 57q211 0 328 -114q114 -112 129 -306q4 -56 4 -112v-1038q0 -96 -29 -140q-37 -57 -102 -57q-90 0 -175 84l62 75q50 -51 87 -51q22 0 28 29q6 25 6 92v1000q0 115 -11 174q-25 130 -126 201q-77 54 -194 54
q-223 0 -306 -162q-43 -84 -43 -266v-848h-123z" />
    <glyph glyph-name="eng" unicode="&#x14b;" horiz-adv-x="866" vert-adv-y="2457" 
d="M100 0v853h115v-110q95 124 256 124q129 0 210 -69q60 -53 78 -141q8 -41 8 -140v-702q0 -96 -29 -140q-37 -57 -102 -57q-90 0 -175 84l62 75q50 -51 88 -51q25 0 34 29q7 24 7 92v665q0 122 -29 171q-47 80 -165 80q-116 0 -183 -78q-60 -69 -60 -236v-449h-115z" />
    <glyph glyph-name="Omacron" unicode="&#x14c;" horiz-adv-x="1570" vert-adv-y="2457" 
d="M782 1385q302 0 510 -207q93 -91 146 -208q64 -140 64 -294q0 -286 -205 -489q-209 -207 -517 -207q-312 0 -515 213q-197 206 -197 496q0 140 67 289q92 204 288 316q160 91 359 91zM782 1276q-248 0 -415 -169q-80 -81 -124 -193q-43 -109 -43 -222q0 -248 151 -415
q79 -87 191 -137q115 -51 241 -51q245 0 422 183q165 170 165 401q0 166 -84 312q-84 147 -229 225q-124 66 -275 66zM450 1575v93h669v-93h-669z" />
    <glyph glyph-name="omacron" unicode="&#x14d;" horiz-adv-x="1014" vert-adv-y="2457" 
d="M513 867q208 0 338 -153q99 -117 99 -283q0 -199 -138 -328q-126 -117 -311 -117q-135 0 -243 71q-97 65 -149 174q-45 93 -45 203q0 193 152 324q126 109 297 109zM512 763q-151 0 -249 -110q-82 -92 -82 -221q0 -146 89 -243q92 -99 232 -99q163 0 259 123
q72 92 72 220q0 143 -92 237q-91 93 -229 93zM200 1049v93h614v-93h-614z" />
    <glyph glyph-name="Ohungarumlaut" unicode="&#x150;" horiz-adv-x="1570" vert-adv-y="2457" 
d="M782 1385q302 0 510 -207q93 -91 146 -208q64 -140 64 -294q0 -286 -205 -489q-209 -207 -517 -207q-312 0 -515 213q-197 206 -197 496q0 140 67 289q92 204 288 316q160 91 359 91zM782 1276q-248 0 -415 -169q-80 -81 -124 -193q-43 -109 -43 -222q0 -248 151 -415
q79 -87 191 -137q115 -51 241 -51q245 0 422 183q165 170 165 401q0 166 -84 312q-84 147 -229 225q-124 66 -275 66zM652 1493l-51 30l135 260l96 -52zM925 1493l-51 30l136 260l95 -52z" />
    <glyph glyph-name="ohungarumlaut" unicode="&#x151;" horiz-adv-x="1014" vert-adv-y="2457" 
d="M513 867q208 0 338 -153q99 -117 99 -283q0 -199 -138 -328q-126 -117 -311 -117q-135 0 -243 71q-97 65 -149 174q-45 93 -45 203q0 193 152 324q126 109 297 109zM512 763q-151 0 -249 -110q-82 -92 -82 -221q0 -146 89 -243q92 -99 232 -99q163 0 259 123
q72 92 72 220q0 143 -92 237q-91 93 -229 93zM402 1015l-52 31l136 259l96 -52zM648 1015l-52 31l136 259l95 -52z" />
    <glyph glyph-name="OE" unicode="&#x152;" horiz-adv-x="2103" vert-adv-y="2457" 
d="M1365 268q-230 -288 -587 -288q-310 0 -513 212q-98 103 -149 237q-48 123 -48 251q0 206 116 389q108 169 291 252q141 64 307 64q354 0 583 -294v274h655v-109h-532v-468h532v-109h-532v-570h532v-109h-655v268zM780 1276q-246 0 -413 -168q-80 -82 -124 -193
q-43 -110 -43 -222q0 -249 151 -416q79 -87 191 -137q114 -51 239 -51q242 0 414 183q161 171 161 402q0 165 -82 311q-82 148 -223 225q-121 66 -271 66z" />
    <glyph glyph-name="oe" unicode="&#x153;" horiz-adv-x="1658" vert-adv-y="2457" 
d="M876 171q-34 -51 -85 -89q-131 -96 -296 -96q-129 0 -237 71q-98 64 -150 172q-44 92 -44 195q0 206 152 336q125 107 294 107q125 0 234 -63q90 -51 135 -126q23 40 60 76q120 113 287 113q146 0 245 -93q96 -90 117 -250q5 -43 6 -109h-650q0 -81 13 -128
q27 -92 99 -145t162 -53q157 0 254 160l93 -50q-42 -72 -91 -115q-112 -99 -251 -99q-101 0 -205 54q-78 41 -117 91q-8 10 -25 41zM947 513h527q-6 80 -39 133q-32 53 -89 84q-62 33 -134 33q-158 0 -232 -141q-25 -48 -33 -109zM511 763q-149 0 -247 -111
q-83 -93 -83 -219q0 -144 89 -244q88 -99 230 -99q165 0 259 124q72 93 72 219q0 142 -91 235q-92 95 -229 95z" />
    <glyph glyph-name="Racute" unicode="&#x154;" horiz-adv-x="896" vert-adv-y="2457" 
d="M130 1365h135q165 0 217 -7q153 -21 229 -134q65 -97 65 -224q0 -123 -62 -216q-82 -123 -251 -142l386 -642h-142l-383 642h-71v-642h-123v1365zM253 1256v-505h86q83 0 117 4q98 12 149 83q44 63 44 161q0 190 -144 240q-49 17 -175 17h-77zM384 1493l-51 30l135 260
l96 -52z" />
    <glyph glyph-name="racute" unicode="&#x155;" horiz-adv-x="580" vert-adv-y="2457" 
d="M100 0v853h115v-125q34 51 64 80q62 59 141 59q72 0 154 -50l-50 -103q-62 49 -117 49q-78 0 -133 -68q-47 -60 -53 -158q-1 -16 -6 -104v-433h-115zM233 967l-51 30l135 259l96 -52z" />
    <glyph glyph-name="uni0156" unicode="&#x156;" horiz-adv-x="896" vert-adv-y="2457" 
d="M130 1365h135q165 0 217 -7q153 -21 229 -134q65 -97 65 -224q0 -123 -62 -216q-82 -123 -251 -142l386 -642h-142l-383 642h-71v-642h-123v1365zM253 1256v-505h86q83 0 117 4q98 12 149 83q44 63 44 161q0 190 -144 240q-49 17 -175 17h-77zM242 -366l177 271l121 -46
l-220 -262z" />
    <glyph glyph-name="uni0157" unicode="&#x157;" horiz-adv-x="580" vert-adv-y="2457" 
d="M100 0v853h115v-125q34 51 64 80q62 59 141 59q72 0 154 -50l-50 -103q-62 49 -117 49q-78 0 -133 -68q-47 -60 -53 -158q-1 -16 -6 -104v-433h-115zM63 -366l177 271l121 -46l-220 -262z" />
    <glyph glyph-name="Rcaron" unicode="&#x158;" horiz-adv-x="896" vert-adv-y="2457" 
d="M130 1365h135q165 0 217 -7q153 -21 229 -134q65 -97 65 -224q0 -123 -62 -216q-82 -123 -251 -142l386 -642h-142l-383 642h-71v-642h-123v1365zM253 1256v-505h86q83 0 117 4q98 12 149 83q44 63 44 161q0 190 -144 240q-49 17 -175 17h-77zM681 1729l-184 -231h-100
l-182 231l56 44l178 -179l181 172z" />
    <glyph glyph-name="rcaron" unicode="&#x159;" horiz-adv-x="580" vert-adv-y="2457" 
d="M99 0v853h115v-125q34 51 64 80q62 59 141 59q72 0 154 -50l-50 -103q-62 49 -117 49q-78 0 -133 -68q-47 -60 -53 -158q-1 -16 -6 -104v-433h-115zM523 1203l-184 -231h-100l-182 231l55 44l178 -179l181 172z" />
    <glyph glyph-name="Sacute" unicode="&#x15a;" horiz-adv-x="833" vert-adv-y="2457" 
d="M41 260l107 53q30 -75 52 -112q68 -113 204 -113q121 0 195 92q52 64 52 165q0 114 -68 192q-44 50 -167 114q-160 84 -217 135q-57 50 -89 127q-28 66 -28 140q0 177 135 270q88 62 215 62q175 0 271 -125q34 -44 62 -112l-108 -54q-25 57 -50 91q-68 91 -182 91
q-94 0 -158 -64q-58 -58 -58 -151q0 -102 73 -178q42 -44 152 -100q167 -85 233 -153q111 -112 111 -275q0 -176 -123 -289q-95 -87 -251 -87q-154 0 -238 77q-78 72 -125 204zM393 1493l-51 30l135 260l96 -52z" />
    <glyph glyph-name="sacute" unicode="&#x15b;" horiz-adv-x="595" vert-adv-y="2457" 
d="M55 109l73 78q83 -97 177 -97q71 0 113 50q32 38 32 82q0 54 -50 104q-27 28 -118 73q-105 53 -150 104q-54 63 -54 146q0 105 78 168q63 50 154 50q146 0 224 -120l-93 -61q-23 30 -39 44q-38 33 -89 33q-56 0 -95 -35q-36 -33 -36 -76q0 -79 144 -154q138 -72 172 -109
q56 -63 56 -154q0 -120 -88 -194q-67 -55 -167 -55q-144 0 -244 123zM281 967l-51 30l135 259l96 -52z" />
    <glyph glyph-name="Scircumflex" unicode="&#x15c;" horiz-adv-x="833" vert-adv-y="2457" 
d="M41 260l107 53q30 -75 52 -112q68 -113 204 -113q121 0 195 92q52 64 52 165q0 114 -68 192q-44 50 -167 114q-160 84 -217 135q-57 50 -89 127q-28 66 -28 140q0 177 135 270q88 62 215 62q175 0 271 -125q34 -44 62 -112l-108 -54q-25 57 -50 91q-68 91 -182 91
q-94 0 -158 -64q-58 -58 -58 -151q0 -102 73 -178q42 -44 152 -100q167 -85 233 -153q111 -112 111 -275q0 -176 -123 -289q-95 -87 -251 -87q-154 0 -238 77q-78 72 -125 204zM211 1543l184 231h100l182 -231l-56 -44l-177 179l-182 -172z" />
    <glyph glyph-name="scircumflex" unicode="&#x15d;" horiz-adv-x="595" vert-adv-y="2457" 
d="M55 109l73 78q83 -97 177 -97q71 0 113 50q32 38 32 82q0 54 -50 104q-27 28 -118 73q-105 53 -150 104q-54 63 -54 146q0 105 78 168q63 50 154 50q146 0 224 -120l-93 -61q-23 30 -39 44q-38 33 -89 33q-56 0 -95 -35q-36 -33 -36 -76q0 -79 144 -154q138 -72 172 -109
q56 -63 56 -154q0 -120 -88 -194q-67 -55 -167 -55q-144 0 -244 123zM92 1016l184 231h100l182 -231l-55 -44l-178 179l-181 -172z" />
    <glyph glyph-name="Scedilla" unicode="&#x15e;" horiz-adv-x="833" vert-adv-y="2457" 
d="M41 260l107 53q30 -75 52 -112q68 -113 204 -113q121 0 195 92q52 64 52 165q0 114 -68 192q-44 50 -167 114q-160 84 -217 135q-57 50 -89 127q-28 66 -28 140q0 177 135 270q88 62 215 62q175 0 271 -125q34 -44 62 -112l-108 -54q-25 57 -50 91q-68 91 -182 91
q-94 0 -158 -64q-58 -58 -58 -151q0 -102 73 -178q42 -44 152 -100q167 -85 233 -153q111 -112 111 -275q0 -176 -123 -289q-95 -87 -251 -87q-154 0 -238 77q-78 72 -125 204zM468 -69l-138 -233h-175l209 233h104z" />
    <glyph glyph-name="scedilla" unicode="&#x15f;" horiz-adv-x="595" vert-adv-y="2457" 
d="M55 109l73 78q83 -97 177 -97q71 0 113 50q32 38 32 82q0 54 -50 104q-27 28 -118 73q-105 53 -150 104q-54 63 -54 146q0 105 78 168q63 50 154 50q146 0 224 -120l-93 -61q-23 30 -39 44q-38 33 -89 33q-56 0 -95 -35q-36 -33 -36 -76q0 -79 144 -154q138 -72 172 -109
q56 -63 56 -154q0 -120 -88 -194q-67 -55 -167 -55q-144 0 -244 123zM393 -69l-139 -233h-175l209 233h105z" />
    <glyph glyph-name="Scaron" unicode="&#x160;" horiz-adv-x="833" vert-adv-y="2457" 
d="M41 260l107 53q30 -75 52 -112q68 -113 204 -113q121 0 195 92q52 64 52 165q0 114 -68 192q-44 50 -167 114q-160 84 -217 135q-57 50 -89 127q-28 66 -28 140q0 177 135 270q88 62 215 62q175 0 271 -125q34 -44 62 -112l-108 -54q-25 57 -50 91q-68 91 -182 91
q-94 0 -158 -64q-58 -58 -58 -151q0 -102 73 -178q42 -44 152 -100q167 -85 233 -153q111 -112 111 -275q0 -176 -123 -289q-95 -87 -251 -87q-154 0 -238 77q-78 72 -125 204zM677 1729l-184 -231h-100l-182 231l55 44l178 -179l181 172z" />
    <glyph glyph-name="scaron" unicode="&#x161;" horiz-adv-x="595" vert-adv-y="2457" 
d="M55 109l73 78q83 -97 177 -97q71 0 113 50q32 38 32 82q0 54 -50 104q-27 28 -118 73q-105 53 -150 104q-54 63 -54 146q0 105 78 168q63 50 154 50q146 0 224 -120l-93 -61q-23 30 -39 44q-38 33 -89 33q-56 0 -95 -35q-36 -33 -36 -76q0 -79 144 -154q138 -72 172 -109
q56 -63 56 -154q0 -120 -88 -194q-67 -55 -167 -55q-144 0 -244 123zM558 1203l-184 -231h-100l-182 231l56 44l177 -179l182 172z" />
    <glyph glyph-name="uni0162" unicode="&#x162;" horiz-adv-x="819" vert-adv-y="2457" 
d="M348 0v1256h-341v109h806v-109h-342v-1256h-123zM204 -366l177 271l120 -46l-219 -262z" />
    <glyph glyph-name="uni0163" unicode="&#x163;" horiz-adv-x="483" vert-adv-y="2457" 
d="M163 0v755h-95v98h95v348h115v-348h178v-98h-178v-755h-115zM35 -366l177 271l121 -46l-220 -262z" />
    <glyph glyph-name="Tcaron" unicode="&#x164;" horiz-adv-x="819" vert-adv-y="2457" 
d="M348 0v1256h-341v109h806v-109h-342v-1256h-123zM643 1729l-184 -231h-100l-182 231l55 44l178 -179l181 172z" />
    <glyph glyph-name="tcaron" unicode="&#x165;" horiz-adv-x="654" vert-adv-y="2457" 
d="M164 0v755h-96v98h96v348h115v-348h177v-98h-177v-755h-115zM356 1135l177 271l121 -45l-220 -262z" />
    <glyph glyph-name="Tbar" unicode="&#x166;" horiz-adv-x="847" vert-adv-y="2457" 
d="M361 784h-273v106h273v366h-341v109h806v-109h-342v-366h273v-106h-273v-784h-123v784z" />
    <glyph glyph-name="tbar" unicode="&#x167;" horiz-adv-x="497" vert-adv-y="2457" 
d="M164 518h-84v98h84v139h-96v98h96v348h115v-348h177v-98h-177v-139h164v-98h-164v-518h-115v518z" />
    <glyph glyph-name="utilde" unicode="&#x169;" horiz-adv-x="855" vert-adv-y="2457" 
d="M100 853h115v-509q0 -113 27 -164q25 -48 84 -72q46 -18 99 -18q133 0 185 88q30 51 30 171v504h115v-503q0 -112 -11 -153q-34 -120 -143 -174q-75 -37 -174 -37q-181 0 -265 106q-55 70 -60 168q-2 31 -2 78v515zM182 1020q2 48 18 85q42 97 130 97q24 0 48 -10
q21 -8 76 -52q48 -38 77 -38q36 0 54 34q6 11 10 50h78q-1 -77 -38 -126q-39 -53 -107 -53q-67 0 -128 57q-26 24 -38 32q-13 8 -33 8q-54 0 -66 -84h-81z" />
    <glyph glyph-name="Umacron" unicode="&#x16a;" horiz-adv-x="1158" vert-adv-y="2457" 
d="M116 1365h123v-839q0 -123 11 -182q25 -130 126 -201q77 -54 195 -54q222 0 305 162q43 85 43 274v840h123v-838q0 -135 -16 -214q-34 -169 -172 -262q-106 -71 -280 -71q-279 0 -395 205q-63 111 -63 341v839zM244 1575v93h669v-93h-669z" />
    <glyph glyph-name="umacron" unicode="&#x16b;" horiz-adv-x="855" vert-adv-y="2457" 
d="M100 853h115v-509q0 -113 27 -164q25 -48 84 -72q46 -18 99 -18q133 0 185 88q30 51 30 171v504h115v-503q0 -112 -11 -153q-34 -120 -143 -174q-75 -37 -174 -37q-181 0 -265 106q-55 70 -60 168q-2 31 -2 78v515zM120 1049v93h615v-93h-615z" />
    <glyph glyph-name="ubreve" unicode="&#x16d;" horiz-adv-x="855" vert-adv-y="2457" 
d="M100 853h115v-509q0 -113 27 -164q25 -48 84 -72q46 -18 99 -18q133 0 185 88q30 51 30 171v504h115v-503q0 -112 -11 -153q-34 -120 -143 -174q-75 -37 -174 -37q-181 0 -265 106q-55 70 -60 168q-2 31 -2 78v515zM595 1194h78q-1 -73 -40 -126q-31 -41 -84 -67
q-58 -27 -121 -27q-85 0 -154 46q-90 59 -92 174h79q7 -39 27 -66q27 -37 58 -50t82 -13q73 0 108 29q48 40 59 100z" />
    <glyph glyph-name="Uring" unicode="&#x16e;" horiz-adv-x="1158" vert-adv-y="2457" 
d="M116 1365h123v-839q0 -123 11 -182q25 -130 126 -201q77 -54 195 -54q222 0 305 162q43 85 43 274v840h123v-838q0 -135 -16 -214q-34 -169 -172 -262q-106 -71 -280 -71q-279 0 -395 205q-63 111 -63 341v839zM578 1789q63 0 107 -46q43 -44 43 -106q0 -64 -45 -108
q-44 -42 -104 -42q-62 0 -106 44q-44 43 -44 107q0 61 44 106q43 45 105 45zM580 1710q-29 0 -49 -22t-20 -51q0 -30 21 -50t49 -20t48 19q21 21 21 52q0 30 -20 50q-21 22 -50 22z" />
    <glyph glyph-name="uring" unicode="&#x16f;" horiz-adv-x="855" vert-adv-y="2457" 
d="M100 853h115v-509q0 -113 27 -164q25 -48 84 -72q46 -18 99 -18q133 0 185 88q30 51 30 171v504h115v-503q0 -112 -11 -153q-34 -120 -143 -174q-75 -37 -174 -37q-181 0 -265 106q-55 70 -60 168q-2 31 -2 78v515zM427 1263q63 0 107 -46q43 -44 43 -106q0 -64 -45 -108
q-44 -42 -104 -42q-62 0 -106 44q-44 43 -44 107q0 61 44 106q43 45 105 45zM429 1184q-29 0 -49 -22t-20 -51q0 -30 21 -50t49 -20t48 19q21 21 21 52q0 29 -20 50q-21 22 -50 22z" />
    <glyph glyph-name="Uhungarumlaut" unicode="&#x170;" horiz-adv-x="1158" vert-adv-y="2457" 
d="M116 1365h123v-839q0 -123 11 -182q25 -130 126 -201q77 -54 195 -54q222 0 305 162q43 85 43 274v840h123v-838q0 -135 -16 -214q-34 -169 -172 -262q-106 -71 -280 -71q-279 0 -395 205q-63 111 -63 341v839zM419 1493l-51 30l135 260l96 -52zM692 1493l-51 30l135 260
l96 -52z" />
    <glyph glyph-name="uhungarumlaut" unicode="&#x171;" horiz-adv-x="855" vert-adv-y="2457" 
d="M100 853h115v-509q0 -113 27 -164q25 -48 84 -72q46 -18 99 -18q133 0 185 88q30 51 30 171v504h115v-503q0 -112 -11 -153q-34 -120 -143 -174q-75 -37 -174 -37q-181 0 -265 106q-55 70 -60 168q-2 31 -2 78v515zM295 1015l-51 31l135 259l96 -52zM541 1015l-51 31
l135 259l96 -52z" />
    <glyph glyph-name="Uogonek" unicode="&#x172;" horiz-adv-x="1158" vert-adv-y="2457" 
d="M869 -244v-81q-43 -17 -81 -17q-105 0 -152 78q-21 35 -21 82q0 85 68 170q-54 -8 -108 -8q-280 0 -396 205q-63 111 -63 341v839h123v-839q0 -123 11 -182q25 -130 126 -201q76 -54 195 -54q221 0 304 162q44 85 44 274v840h123v-838q0 -172 -31 -271
q-34 -111 -145 -196q-83 -65 -108 -99q-38 -52 -38 -105q0 -61 47 -89q30 -18 63 -18q16 0 39 7z" />
    <glyph glyph-name="uogonek" unicode="&#x173;" horiz-adv-x="855" vert-adv-y="2457" 
d="M675 -244v-81q-44 -17 -82 -17q-104 0 -151 78q-21 35 -21 82q0 87 70 173q-39 -5 -68 -5q-176 0 -261 106q-55 69 -60 168q-2 31 -2 78v515h115v-509q0 -113 27 -164q25 -48 84 -72q46 -18 99 -18q133 0 185 88q30 51 30 171v504h115v-503q0 -112 -11 -152
q-22 -76 -74 -126q-4 -4 -66 -58q-79 -68 -79 -159q0 -60 47 -88q30 -18 64 -18q15 0 39 7z" />
    <glyph glyph-name="Wcircumflex" unicode="&#x174;" horiz-adv-x="1850" vert-adv-y="2457" 
d="M501 -41l-494 1406h132l284 -811q55 -158 93 -290q37 132 89 275l322 886l316 -910q11 -32 36 -112q16 -50 44 -139q32 119 86 263l309 838h133l-521 -1406h-26l-337 983q-5 15 -33 110l-10 33q-16 -64 -42 -136l-356 -990h-25zM693 1543l184 231h99l182 -231l-55 -44
l-178 179l-181 -172z" />
    <glyph glyph-name="Ycircumflex" unicode="&#x176;" horiz-adv-x="967" vert-adv-y="2457" 
d="M416 0v570l-423 795h136l356 -658l359 658h137l-442 -795v-570h-123zM251 1543l184 231h99l182 -231l-55 -44l-178 179l-181 -172z" />
    <glyph glyph-name="ycircumflex" unicode="&#x177;" horiz-adv-x="854" vert-adv-y="2457" 
d="M194 -382l209 491l-396 744h130l327 -614q17 45 32 79l231 535h121l-535 -1235h-119zM195 1016l184 231h99l182 -231l-55 -44l-178 179l-181 -172z" />
    <glyph glyph-name="Ydieresis" unicode="&#x178;" horiz-adv-x="967" vert-adv-y="2457" 
d="M416 0v570l-423 795h136l356 -658l359 658h137l-442 -795v-570h-123zM314 1700q31 0 52 -21t21 -52q0 -30 -21 -51q-21 -22 -52 -22q-30 0 -52 22q-21 23 -21 54t22 50q22 20 51 20zM656 1699q27 0 48 -18q25 -21 25 -54q0 -28 -18 -49q-21 -25 -54 -25q-29 0 -50 20
q-24 23 -24 57q0 28 20 47q22 22 53 22z" />
    <glyph glyph-name="Zacute" unicode="&#x179;" horiz-adv-x="965" vert-adv-y="2457" 
d="M14 0l703 1256h-617v109h815l-704 -1256h718v-109h-915zM459 1493l-51 30l135 260l96 -52z" />
    <glyph glyph-name="zacute" unicode="&#x17a;" horiz-adv-x="824" vert-adv-y="2457" 
d="M37 0l522 755h-494v98h697l-519 -755h538v-98h-744zM355 967l-52 30l136 259l96 -52z" />
    <glyph glyph-name="Zdotaccent" unicode="&#x17b;" horiz-adv-x="965" vert-adv-y="2457" 
d="M14 0l703 1256h-617v109h815l-704 -1256h718v-109h-915zM524 1699q28 0 49 -18q25 -21 25 -54q0 -28 -18 -49q-22 -25 -55 -25q-28 0 -49 20q-24 23 -24 57q0 28 20 47q22 22 52 22z" />
    <glyph glyph-name="zdotaccent" unicode="&#x17c;" horiz-adv-x="824" vert-adv-y="2457" 
d="M37 0l522 755h-494v98h697l-519 -755h538v-98h-744zM441 1173q28 0 48 -18q25 -21 25 -54q0 -28 -18 -49q-21 -25 -54 -25q-29 0 -50 20q-24 23 -24 57q0 27 20 47q22 22 53 22z" />
    <glyph glyph-name="Zcaron" unicode="&#x17d;" horiz-adv-x="965" vert-adv-y="2457" 
d="M14 0l703 1256h-617v109h815l-704 -1256h718v-109h-915zM756 1729l-184 -231h-99l-182 231l55 44l178 -179l181 172z" />
    <glyph glyph-name="zcaron" unicode="&#x17e;" horiz-adv-x="824" vert-adv-y="2457" 
d="M37 0l522 755h-494v98h697l-519 -755h538v-98h-744zM672 1203l-184 -231h-99l-182 231l55 44l178 -179l181 172z" />
    <glyph glyph-name="florin" unicode="&#x192;" horiz-adv-x="915" vert-adv-y="2457" 
d="M175 874l17 109h239l12 61q35 177 69 245q56 112 144 166q66 40 144 40q99 0 191 -70l-65 -94q-74 55 -127 55q-57 0 -112 -51q-58 -53 -86 -160q-3 -13 -29 -148l-9 -44h270l-18 -109h-273l-152 -784q-35 -177 -69 -246q-104 -206 -289 -206q-99 0 -190 70l65 94
q74 -55 127 -55q57 0 112 51q57 53 85 160q4 13 29 148l150 768h-235z" />
    <glyph glyph-name="uni01CD" unicode="&#x1cd;" horiz-adv-x="1181" vert-adv-y="2457" 
d="M589 1410l592 -1410h-130l-172 410h-572l-170 -410h-130zM834 516l-121 292q-89 212 -123 308q-23 -72 -106 -278l-133 -322h483zM824 1729l-185 -231h-99l-182 231l55 44l178 -179l181 172z" />
    <glyph glyph-name="uni01CE" unicode="&#x1ce;" horiz-adv-x="976" vert-adv-y="2457" 
d="M761 720v133h115v-853h-115v133q-117 -147 -299 -147q-185 0 -300 135q-99 116 -99 298q0 197 114 325q110 123 285 123q183 0 299 -147zM476 764q-155 0 -238 -126q-58 -89 -58 -209q0 -180 104 -270q80 -70 188 -70q124 0 209 85q81 82 81 257q0 152 -72 238
q-80 95 -214 95zM721 1203l-184 -231h-100l-182 231l56 44l177 -179l181 172z" />
    <glyph glyph-name="uni01D1" unicode="&#x1d1;" horiz-adv-x="476" vert-adv-y="2457" 
d="M302 1017v-1017h-126v1017h126zM238 1373q40 0 70 -28q31 -30 31 -74q0 -40 -29 -69q-29 -31 -72 -31q-42 0 -71 29q-30 29 -30 72q0 41 28 70q30 31 73 31z" />
    <glyph glyph-name="uni01D3" unicode="&#x1d3;" horiz-adv-x="1158" vert-adv-y="2457" 
d="M116 1365h123v-839q0 -123 11 -182q25 -130 126 -201q77 -54 195 -54q222 0 305 162q43 85 43 274v840h123v-838q0 -135 -16 -214q-34 -169 -172 -262q-106 -71 -280 -71q-279 0 -395 205q-63 111 -63 341v839zM812 1729l-184 -231h-100l-182 231l55 44l178 -179l181 172
z" />
    <glyph glyph-name="Gcaron" unicode="&#x1e6;" horiz-adv-x="1493" vert-adv-y="2457" 
d="M1336 1138l-81 -94q-64 86 -148 139q-149 93 -322 93q-300 0 -467 -228q-118 -160 -118 -369q0 -249 161 -411q93 -94 220 -141q104 -38 215 -38q184 0 318 101q138 105 178 296q8 36 15 105h-368v109h486v-42q0 -193 -80 -353q-76 -155 -224 -240q-146 -85 -334 -85
q-243 0 -428 130q-139 98 -217 256q-74 149 -74 315q0 162 69 306q93 194 275 301q166 97 371 97q334 0 553 -247zM1007 1729l-185 -231h-99l-182 231l55 44l178 -179l181 172z" />
    <glyph glyph-name="gcaron" unicode="&#x1e7;" horiz-adv-x="976" vert-adv-y="2457" 
d="M95 -76h113q15 -87 63 -134q78 -75 214 -75q175 0 242 126q34 65 34 222v82q-102 -159 -293 -159q-184 0 -298 132q-107 125 -107 311q0 136 65 250q57 100 162 151q77 37 172 37q127 0 225 -70q32 -23 74 -66v122h115v-755q0 -141 -10 -195q-26 -140 -125 -216
q-98 -76 -263 -76q-238 0 -332 150q-41 66 -51 163zM477 763q-124 0 -213 -93q-83 -86 -83 -232q0 -177 101 -271q84 -77 196 -77q122 0 198 79q85 89 85 271q0 115 -46 192q-39 65 -113 102q-61 29 -125 29zM721 1203l-184 -231h-100l-182 231l56 44l177 -179l181 172z" />
    <glyph glyph-name="uni01F4" unicode="&#x1f4;" horiz-adv-x="1493" vert-adv-y="2457" 
d="M1336 1138l-81 -94q-64 86 -148 139q-149 93 -322 93q-300 0 -467 -228q-118 -160 -118 -369q0 -249 161 -411q93 -94 220 -141q104 -38 215 -38q184 0 318 101q138 105 178 296q8 36 15 105h-368v109h486v-42q0 -193 -80 -353q-76 -155 -224 -240q-146 -85 -334 -85
q-243 0 -428 130q-139 98 -217 256q-74 149 -74 315q0 162 69 306q93 194 275 301q166 97 371 97q334 0 553 -247zM737 1493l-52 30l136 260l96 -52z" />
    <glyph glyph-name="uni0218" unicode="&#x218;" horiz-adv-x="833" vert-adv-y="2457" 
d="M41 260l107 53q30 -75 52 -112q68 -113 204 -113q121 0 195 92q52 64 52 165q0 114 -68 192q-44 50 -167 114q-160 84 -217 135q-57 50 -89 127q-28 66 -28 140q0 177 135 270q88 62 215 62q175 0 271 -125q34 -44 62 -112l-108 -54q-25 57 -50 91q-68 91 -182 91
q-94 0 -158 -64q-58 -58 -58 -151q0 -102 73 -178q42 -44 152 -100q167 -85 233 -153q111 -112 111 -275q0 -176 -123 -289q-95 -87 -251 -87q-154 0 -238 77q-78 72 -125 204zM200 -366l178 271l120 -46l-219 -262z" />
    <glyph glyph-name="uni0219" unicode="&#x219;" horiz-adv-x="595" vert-adv-y="2457" 
d="M55 109l73 78q83 -97 177 -97q71 0 113 50q32 38 32 82q0 54 -50 104q-27 28 -118 73q-105 53 -150 104q-54 63 -54 146q0 105 78 168q63 50 154 50q146 0 224 -120l-93 -61q-23 30 -39 44q-38 33 -89 33q-56 0 -95 -35q-36 -33 -36 -76q0 -79 144 -154q138 -72 172 -109
q56 -63 56 -154q0 -120 -88 -194q-67 -55 -167 -55q-144 0 -244 123zM92 -366l177 271l120 -46l-219 -262z" />
    <glyph glyph-name="uni021A" unicode="&#x21a;" horiz-adv-x="819" vert-adv-y="2457" 
d="M348 0v1256h-341v109h806v-109h-342v-1256h-123zM204 -366l177 271l120 -46l-219 -262z" />
    <glyph glyph-name="uni021B" unicode="&#x21b;" horiz-adv-x="483" vert-adv-y="2457" 
d="M163 0v755h-95v98h95v348h115v-348h178v-98h-178v-755h-115zM35 -366l177 271l121 -46l-220 -262z" />
    <glyph glyph-name="uni0226" unicode="&#x226;" horiz-adv-x="1181" vert-adv-y="2457" 
d="M589 1410l592 -1410h-130l-172 410h-572l-170 -410h-130zM834 516l-121 292q-89 212 -123 308q-23 -72 -106 -278l-133 -322h483zM592 1699q27 0 48 -18q25 -21 25 -54q0 -28 -18 -49q-21 -25 -54 -25q-29 0 -50 20q-24 23 -24 57q0 28 20 47q22 22 53 22z" />
    <glyph glyph-name="uni0227" unicode="&#x227;" horiz-adv-x="976" vert-adv-y="2457" 
d="M761 720v133h115v-853h-115v133q-117 -147 -299 -147q-185 0 -300 135q-99 116 -99 298q0 197 114 325q110 123 285 123q183 0 299 -147zM476 764q-155 0 -238 -126q-58 -89 -58 -209q0 -180 104 -270q80 -70 188 -70q124 0 209 85q81 82 81 257q0 152 -72 238
q-80 95 -214 95zM489 1173q28 0 48 -18q25 -21 25 -54q0 -28 -18 -49q-21 -25 -54 -25q-29 0 -50 20q-24 23 -24 57q0 27 20 47q22 22 53 22z" />
    <glyph glyph-name="uni0237" unicode="&#x237;" horiz-adv-x="314" vert-adv-y="2457" 
d="M215 853v-1038q0 -97 -29 -140q-38 -57 -102 -57q-91 0 -175 84l62 75q49 -51 88 -51q25 0 34 29q7 24 7 92v1006h115z" />
    <glyph glyph-name="uni02BC" unicode="&#x2bc;" horiz-adv-x="410" vert-adv-y="2457" 
d="M-1 915l177 475l121 -45l-220 -465z" />
    <glyph glyph-name="circumflex" unicode="&#x2c6;" vert-adv-y="2457" 
d="M279 1016l184 231h100l182 -231l-56 -44l-177 179l-182 -172z" />
    <glyph glyph-name="caron" unicode="&#x2c7;" vert-adv-y="2457" 
d="M745 1203l-184 -231h-100l-182 231l55 44l178 -179l181 172z" />
    <glyph glyph-name="uni02C9" unicode="&#x2c9;" vert-adv-y="2457" 
d="M205 1049v93h614v-93h-614z" />
    <glyph glyph-name="breve" unicode="&#x2d8;" vert-adv-y="2457" 
d="M679 1194h79q-1 -73 -40 -126q-31 -41 -84 -67q-58 -27 -121 -27q-85 0 -154 46q-90 59 -92 174h79q7 -39 27 -66q27 -37 57 -50q32 -13 83 -13q73 0 108 29q47 40 58 100z" />
    <glyph glyph-name="dotaccent" unicode="&#x2d9;" vert-adv-y="2457" 
d="M513 1173q28 0 48 -18q25 -21 25 -54q0 -28 -18 -49q-22 -25 -54 -25q-29 0 -50 20q-24 23 -24 57q0 27 20 47q22 22 53 22z" />
    <glyph glyph-name="ring" unicode="&#x2da;" vert-adv-y="2457" 
d="M511 1263q63 0 107 -46q43 -44 43 -106q0 -64 -45 -108q-44 -42 -104 -42q-62 0 -106 44q-44 43 -44 107q0 61 44 106q43 45 105 45zM513 1184q-29 0 -49 -22t-20 -51q0 -30 21 -50t49 -20q27 0 47 19q22 21 22 52q0 30 -20 50q-21 22 -50 22z" />
    <glyph glyph-name="ogonek" unicode="&#x2db;" vert-adv-y="2457" 
d="M473 0h96q-69 -73 -69 -144q0 -62 47 -89q30 -18 63 -18q16 0 39 7v-81q-43 -17 -81 -17q-105 0 -152 78q-21 36 -21 82q0 89 78 182z" />
    <glyph glyph-name="tilde" unicode="&#x2dc;" vert-adv-y="2457" 
d="M267 1020q2 48 18 85q42 97 130 97q24 0 48 -10q21 -8 76 -52q47 -38 77 -38q35 0 54 34q6 11 9 50h79q-1 -77 -38 -126q-39 -53 -107 -53q-67 0 -129 57q-25 24 -37 32q-13 8 -33 8q-54 0 -66 -84h-81z" />
    <glyph glyph-name="hungarumlaut" unicode="&#x2dd;" vert-adv-y="2457" 
d="M406 1015l-51 31l136 259l95 -52zM652 1015l-51 31l135 259l96 -52z" />
    <glyph glyph-name="anoteleia" unicode="&#x387;" horiz-adv-x="410" vert-adv-y="2457" 
d="M204 524q40 0 68 -27q30 -29 30 -71q0 -39 -28 -67q-28 -29 -69 -29q-39 0 -68 28q-29 29 -29 71q0 38 26 65q29 30 70 30z" />
    <glyph glyph-name="uni1E1E" unicode="&#x1e1e;" horiz-adv-x="842" vert-adv-y="2457" 
d="M130 0v1365h651v-109h-528v-468h528v-109h-528v-679h-123zM464 1699q27 0 48 -18q25 -21 25 -54q0 -28 -18 -49q-21 -25 -54 -25q-29 0 -50 20q-24 23 -24 57q0 28 20 47q22 22 53 22z" />
    <glyph glyph-name="Wacute" unicode="&#x1e82;" horiz-adv-x="500" vert-adv-y="2457" 
d="M68 373v106h363v-106h-363z" />
    <glyph glyph-name="Wdieresis" unicode="&#x1e84;" horiz-adv-x="1850" vert-adv-y="2457" 
d="M501 -41l-494 1406h132l284 -811q55 -158 93 -290q37 132 89 275l322 886l316 -910q11 -32 36 -112q16 -50 44 -139q32 119 86 263l309 838h133l-521 -1406h-26l-337 983q-5 15 -33 110l-10 33q-16 -64 -42 -136l-356 -990h-25zM756 1700q30 0 52 -21q21 -21 21 -52
q0 -30 -21 -51q-21 -22 -52 -22q-30 0 -52 22q-21 23 -21 54q0 30 22 50t51 20zM1098 1699q27 0 48 -18q25 -21 25 -54q0 -28 -18 -49q-21 -25 -54 -25q-29 0 -50 20q-24 23 -24 57q0 28 20 47q22 22 53 22z" />
    <glyph glyph-name="uni2002" unicode="&#x2002;" vert-adv-y="2457" 
 />
    <glyph glyph-name="uni2003" unicode="&#x2003;" horiz-adv-x="2048" vert-adv-y="2457" 
 />
    <glyph glyph-name="uni2004" unicode="&#x2004;" horiz-adv-x="683" vert-adv-y="2457" 
 />
    <glyph glyph-name="uni2005" unicode="&#x2005;" horiz-adv-x="512" vert-adv-y="2457" 
 />
    <glyph glyph-name="uni2006" unicode="&#x2006;" horiz-adv-x="137" vert-adv-y="2457" 
 />
    <glyph glyph-name="uni2007" unicode="&#x2007;" horiz-adv-x="915" vert-adv-y="2457" 
 />
    <glyph glyph-name="uni2009" unicode="&#x2009;" horiz-adv-x="256" vert-adv-y="2457" 
 />
    <glyph glyph-name="uni200A" unicode="&#x200a;" horiz-adv-x="68" vert-adv-y="2457" 
 />
    <glyph glyph-name="uni2011" unicode="&#x2011;" horiz-adv-x="363" vert-adv-y="2457" 
d="M0 373v106h363v-106h-363z" />
    <glyph glyph-name="figuredash" unicode="&#x2012;" horiz-adv-x="806" vert-adv-y="2457" 
d="M68 373v106h669v-106h-669z" />
    <glyph glyph-name="endash" unicode="&#x2013;" horiz-adv-x="806" vert-adv-y="2457" 
d="M68 373v106h669v-106h-669z" />
    <glyph glyph-name="emdash" unicode="&#x2014;" horiz-adv-x="1106" vert-adv-y="2457" 
d="M0 373v106h1106v-106h-1106z" />
    <glyph glyph-name="uni2015" unicode="&#x2015;" horiz-adv-x="1106" vert-adv-y="2457" 
d="M0 373v106h1106v-106h-1106z" />
    <glyph glyph-name="underscoredbl" unicode="&#x2017;" vert-adv-y="2457" 
d="M0 -123h1024v-77h-1024v77zM0 -362h1024v-78h-1024v78z" />
    <glyph glyph-name="quoteleft" unicode="&#x2018;" horiz-adv-x="410" vert-adv-y="2457" 
d="M411 1356l-178 -476l-120 46l220 464z" />
    <glyph glyph-name="quoteright" unicode="&#x2019;" horiz-adv-x="464" vert-adv-y="2457" 
d="M26 915l177 475l121 -45l-220 -465z" />
    <glyph glyph-name="quotesinglbase" unicode="&#x201a;" horiz-adv-x="464" vert-adv-y="2457" 
d="M26 -291l177 475l121 -45l-220 -465z" />
    <glyph glyph-name="quotedblleft" unicode="&#x201c;" horiz-adv-x="724" vert-adv-y="2457" 
d="M439 1356l-178 -476l-120 46l220 464zM698 1356l-177 -476l-121 46l220 464z" />
    <glyph glyph-name="quotedblright" unicode="&#x201d;" horiz-adv-x="724" vert-adv-y="2457" 
d="M26 915l177 475l121 -45l-220 -465zM285 915l178 475l120 -45l-219 -465z" />
    <glyph glyph-name="quotedblbase" unicode="&#x201e;" horiz-adv-x="724" vert-adv-y="2457" 
d="M26 -291l177 475l121 -45l-220 -465zM285 -291l178 475l120 -45l-219 -465z" />
    <glyph glyph-name="dagger" unicode="&#x2020;" horiz-adv-x="915" vert-adv-y="2457" 
d="M398 -382v1180h-342v109h342v458h116v-458h344v-109h-344v-1180h-116z" />
    <glyph glyph-name="daggerdbl" unicode="&#x2021;" horiz-adv-x="915" vert-adv-y="2457" 
d="M398 798h-342v109h342v458h116v-458h344v-109h-344v-613h344v-109h-344v-458h-116v458h-342v109h342v613z" />
    <glyph glyph-name="bullet" unicode="&#x2022;" horiz-adv-x="1365" vert-adv-y="2457" 
d="M689 978q113 0 196 -83q84 -83 84 -201t-83 -201t-201 -83q-116 0 -199 82q-85 84 -85 202q0 121 84 202q86 82 204 82z" />
    <glyph glyph-name="ellipsis" unicode="&#x2026;" horiz-adv-x="1229" vert-adv-y="2457" 
d="M204 180q40 0 68 -27q30 -29 30 -71q0 -39 -28 -67q-28 -29 -69 -29q-39 0 -68 28q-29 29 -29 71q0 38 26 65q29 30 70 30zM614 180q40 0 68 -27q30 -29 30 -71q0 -39 -28 -67q-28 -29 -69 -29q-39 0 -67 28q-30 29 -30 71q0 38 26 65q29 30 70 30zM1023 180q39 0 68 -27
q30 -29 30 -71q0 -39 -28 -67q-29 -29 -69 -29q-39 0 -67 28q-30 29 -30 71q0 38 26 65q29 30 70 30z" />
    <glyph glyph-name="perthousand" unicode="&#x2030;" horiz-adv-x="2077" vert-adv-y="2457" 
d="M300 1377q136 0 200 -131q53 -107 53 -292q0 -220 -81 -333q-64 -87 -173 -87q-251 0 -251 424q0 207 72 319q65 100 180 100zM302 1299q-162 0 -162 -348q0 -339 159 -339q81 0 119 83q43 93 43 248q0 356 -159 356zM1106 1367l-629 -1365h-108l625 1365h112zM1174 831
q136 0 200 -131q53 -108 53 -292q0 -220 -81 -333q-64 -87 -172 -87q-252 0 -252 424q0 207 72 319q65 100 180 100zM1176 753q-162 0 -162 -348q0 -339 159 -339q81 0 119 83q43 94 43 248q0 356 -159 356zM1776 831q135 0 199 -131q53 -108 53 -292q0 -220 -81 -333
q-63 -87 -172 -87q-251 0 -251 424q0 207 72 319q65 100 180 100zM1778 753q-162 0 -162 -348q0 -339 158 -339q81 0 119 83q43 93 43 248q0 356 -158 356z" />
    <glyph glyph-name="guilsinglleft" unicode="&#x2039;" horiz-adv-x="382" vert-adv-y="2457" 
d="M286 142l-61 -25l-157 313l157 306l61 -26l-98 -280z" />
    <glyph glyph-name="guilsinglright" unicode="&#x203a;" horiz-adv-x="382" vert-adv-y="2457" 
d="M96 142l99 288l-99 280l61 26l157 -306l-157 -313z" />
    <glyph glyph-name="exclamdbl" unicode="&#x203c;" horiz-adv-x="816" vert-adv-y="2457" 
d="M262 1365v-363l-25 -630h-73l-25 629v364h123zM264 221v-221h-127v221h127zM677 1365v-363l-25 -630h-73l-25 629v364h123zM678 221v-221h-127v221h127z" />
    <glyph glyph-name="uni203E" unicode="&#x203e;" vert-adv-y="2457" 
d="M0 1749h1024v-105h-1024v105z" />
    <glyph glyph-name="fraction" unicode="&#x2044;" horiz-adv-x="273" vert-adv-y="2457" 
d="M505 1367l-629 -1365h-108l625 1365h112z" />
    <glyph glyph-name="uni2070" unicode="&#x2070;" horiz-adv-x="601" vert-adv-y="2457" 
d="M300 1377q136 0 200 -131q53 -107 53 -292q0 -220 -81 -333q-64 -87 -173 -87q-251 0 -251 424q0 207 72 319q65 100 180 100zM302 1299q-162 0 -162 -348q0 -339 159 -339q81 0 119 83q43 93 43 248q0 356 -159 356z" />
    <glyph glyph-name="uni2074" unicode="&#x2074;" horiz-adv-x="601" vert-adv-y="2457" 
d="M32 727l451 703v-625h84v-78h-84v-181h-90v181h-361zM188 805h200v201q0 70 3 129q-17 -31 -49 -83l-30 -50z" />
    <glyph glyph-name="uni2075" unicode="&#x2075;" horiz-adv-x="601" vert-adv-y="2457" 
d="M43 658l63 53q34 -43 59 -63q45 -36 105 -36q93 0 145 72q35 50 35 120q0 102 -71 154q-50 36 -124 36q-80 0 -174 -56l94 427h357v-78h-282l-51 -224q41 9 78 9q81 0 143 -37q122 -75 122 -230q0 -115 -74 -191q-79 -80 -201 -80q-140 0 -224 124z" />
    <glyph glyph-name="uni2076" unicode="&#x2076;" horiz-adv-x="601" vert-adv-y="2457" 
d="M413 1388l73 -51l-244 -325q53 11 81 11q107 0 180 -87q54 -63 54 -156q0 -113 -75 -182q-70 -64 -180 -64q-122 0 -194 76q-64 69 -64 174q0 83 47 165q15 28 69 100zM301 945q-85 0 -129 -58q-36 -46 -36 -105q0 -83 57 -131q48 -39 109 -39q80 0 127 58q36 44 36 110
q0 69 -42 115q-44 50 -122 50z" />
    <glyph glyph-name="uni2077" unicode="&#x2077;" horiz-adv-x="601" vert-adv-y="2457" 
d="M57 546l396 741h-384v78h529l-440 -819h-101z" />
    <glyph glyph-name="uni2078" unicode="&#x2078;" horiz-adv-x="601" vert-adv-y="2457" 
d="M425 974q115 -63 115 -198q0 -106 -61 -170q-68 -72 -178 -72q-105 0 -177 68q-63 61 -63 171q0 136 114 201q-88 71 -88 180q0 100 64 162q29 28 74 45q41 16 78 16q57 0 113 -33q99 -57 99 -193q0 -68 -28 -115q-17 -28 -62 -62zM299 1299q-47 0 -81 -35
q-39 -40 -39 -109q0 -73 39 -112q34 -34 83 -34q50 0 84 35q38 40 38 106t-33 107q-34 42 -91 42zM300 929q-63 0 -102 -37q-45 -42 -45 -119q0 -73 40 -117t104 -44q69 0 112 47q39 43 39 112q0 76 -42 117q-40 41 -106 41z" />
    <glyph glyph-name="uni2079" unicode="&#x2079;" horiz-adv-x="601" vert-adv-y="2457" 
d="M176 523l-74 53l251 320q-36 -9 -62 -9q-118 0 -187 76q-60 67 -60 167q0 109 70 177q72 70 185 70q132 0 205 -90q53 -65 53 -156q0 -117 -114 -264zM300 1299q-84 0 -131 -65q-33 -45 -33 -103q0 -82 52 -130q39 -36 107 -36q96 0 136 55q34 46 34 107q0 71 -44 119
q-48 53 -121 53z" />
    <glyph glyph-name="uni2080" unicode="&#x2080;" horiz-adv-x="601" vert-adv-y="2457" 
d="M300 831q136 0 200 -131q53 -107 53 -292q0 -220 -81 -333q-64 -87 -173 -87q-251 0 -251 424q0 207 72 319q65 100 180 100zM302 753q-162 0 -162 -348q0 -339 159 -339q81 0 119 83q43 93 43 248q0 356 -159 356z" />
    <glyph glyph-name="uni2081" unicode="&#x2081;" horiz-adv-x="601" vert-adv-y="2457" 
d="M260 0v741h-123l41 78h172v-819h-90z" />
    <glyph glyph-name="uni2082" unicode="&#x2082;" horiz-adv-x="601" vert-adv-y="2457" 
d="M56 0l264 350q44 59 74 109q43 74 43 149q0 67 -40 109q-34 36 -96 36q-105 0 -135 -95q-8 -25 -11 -92h-92q2 100 29 152q59 113 208 113q110 0 173 -66q57 -60 57 -158q0 -127 -113 -276l-190 -253h294v-78h-465z" />
    <glyph glyph-name="uni2083" unicode="&#x2083;" horiz-adv-x="601" vert-adv-y="2457" 
d="M49 204h92q4 -57 30 -88q41 -50 119 -50q79 0 124 52q34 39 34 101q0 103 -75 144q-31 17 -120 21v78q71 0 106 15q30 13 50 46q23 38 23 89q0 74 -46 112q-35 29 -90 29q-121 0 -135 -129h-92q9 207 225 207q108 0 168 -56q62 -58 62 -157q0 -143 -120 -195
q136 -53 136 -200q0 -123 -81 -186q-65 -49 -171 -49q-127 0 -193 76q-45 52 -46 140z" />
    <glyph glyph-name="uni2084" unicode="&#x2084;" horiz-adv-x="601" vert-adv-y="2457" 
d="M32 181l451 703v-625h84v-78h-84v-181h-90v181h-361zM188 259h200v201q0 70 3 129q-17 -31 -49 -83l-30 -50z" />
    <glyph glyph-name="uni2085" unicode="&#x2085;" horiz-adv-x="601" vert-adv-y="2457" 
d="M43 112l63 53q33 -43 59 -63q45 -36 105 -36q93 0 145 72q35 50 35 120q0 102 -71 154q-50 36 -124 36q-79 0 -174 -56l94 427h357v-78h-282l-51 -224q41 9 78 9q81 0 143 -37q122 -75 122 -230q0 -115 -74 -191q-79 -80 -201 -80q-140 0 -224 124z" />
    <glyph glyph-name="uni2086" unicode="&#x2086;" horiz-adv-x="601" vert-adv-y="2457" 
d="M413 842l73 -51l-244 -325q53 11 81 11q107 0 180 -87q54 -63 54 -156q0 -113 -75 -182q-70 -64 -180 -64q-122 0 -194 76q-64 69 -64 174q0 83 47 165q15 28 69 100zM301 399q-85 0 -129 -58q-36 -46 -36 -105q0 -83 57 -131q48 -39 109 -39q80 0 127 58q36 44 36 110
q0 69 -42 115q-44 50 -122 50z" />
    <glyph glyph-name="uni2087" unicode="&#x2087;" horiz-adv-x="601" vert-adv-y="2457" 
d="M57 0l396 741h-384v78h529l-440 -819h-101z" />
    <glyph glyph-name="uni2088" unicode="&#x2088;" horiz-adv-x="601" vert-adv-y="2457" 
d="M425 428q115 -63 115 -198q0 -106 -61 -170q-68 -72 -178 -72q-105 0 -177 68q-63 61 -63 171q0 136 114 201q-88 70 -88 180q0 100 64 162q29 28 74 45q41 16 78 16q57 0 113 -33q99 -57 99 -193q0 -68 -28 -115q-17 -28 -62 -62zM299 753q-47 0 -81 -35
q-39 -40 -39 -109q0 -73 39 -112q34 -34 83 -34q50 0 84 35q38 40 38 106t-33 107q-34 42 -91 42zM300 383q-63 0 -102 -37q-45 -42 -45 -119q0 -73 40 -117t104 -44q69 0 112 47q39 43 39 112q0 76 -42 117q-40 41 -106 41z" />
    <glyph glyph-name="uni2089" unicode="&#x2089;" horiz-adv-x="601" vert-adv-y="2457" 
d="M176 -23l-74 53l251 320q-36 -9 -62 -9q-118 0 -187 76q-60 67 -60 167q0 109 70 177q72 70 185 70q132 0 205 -90q53 -65 53 -156q0 -117 -114 -264zM300 753q-84 0 -131 -65q-33 -45 -33 -103q0 -82 52 -130q39 -36 107 -36q96 0 136 55q34 46 34 107q0 71 -44 119
q-48 53 -121 53z" />
    <glyph glyph-name="franc" unicode="&#x20a3;" horiz-adv-x="970" vert-adv-y="2457" 
d="M40 0v1365h583v-109h-460v-468h460v-109h-460v-679h-123zM634 0v517h98v-59q57 67 121 67q47 0 104 -33l-38 -88q-42 32 -75 32q-45 0 -77 -35q-28 -31 -31 -82q-1 -9 -4 -57v-262h-98z" />
    <glyph glyph-name="lira" unicode="&#x20a4;" horiz-adv-x="915" vert-adv-y="2457" 
d="M89 635v82h115q-86 175 -86 315q0 105 54 192q50 83 139 124q79 37 168 37q163 0 261 -103q93 -98 111 -315l-123 -20q-10 97 -32 161q-24 75 -78 119q-59 49 -143 49q-100 0 -166 -73q-64 -71 -64 -191q0 -95 51 -203q16 -32 50 -92h398v-82h-351q34 -58 55 -96h296v-82
h-281q10 -56 10 -102q0 -77 -25 -171q23 -12 64 -39q89 -56 149 -56q79 0 176 110l77 -75q-117 -144 -257 -144q-62 0 -145 48q-70 40 -107 53t-82 13q-73 0 -135 -38q-27 -17 -79 -65l-54 96q43 43 82 66q86 53 158 53q11 0 37 -4q14 74 14 143q0 55 -11 112h-246v82h222
q-36 53 -62 96h-160z" />
    <glyph glyph-name="peseta" unicode="&#x20a7;" horiz-adv-x="1290" vert-adv-y="2457" 
d="M97 0v1365h119q160 0 218 -9q150 -23 222 -134q61 -95 61 -234q0 -157 -75 -255q-81 -105 -230 -120q-76 -7 -169 -7h-23v-606h-123zM220 1256v-541h32q94 0 129 5q103 12 159 87q50 66 50 179q0 182 -119 243q-44 22 -119 26q-17 1 -115 1h-17zM706 0v446h-60v85h60v192
h98v-192h96v-85h-96v-446h-98zM929 71l55 56q54 -47 108 -47q36 0 56 22q15 17 15 36q0 28 -27 56q-16 16 -67 42q-123 62 -123 153q0 66 52 105q40 31 99 31q97 0 149 -79l-69 -43q-38 34 -76 34q-28 0 -47 -14q-16 -13 -16 -32q0 -42 81 -84q80 -42 101 -66q35 -39 35 -94
q0 -76 -57 -121q-43 -34 -108 -34q-93 0 -161 79z" />
    <glyph glyph-name="Euro" unicode="&#x20ac;" horiz-adv-x="1282" vert-adv-y="2457" 
d="M181 491h-181l56 109h103q-5 38 -5 79q0 36 4 71h-158l56 109h122q24 88 67 165q102 183 280 279q155 83 346 83q192 0 369 -92l-55 -107q-133 90 -320 90q-233 0 -396 -157q-114 -108 -158 -261h705l-57 -109h-669q-3 -38 -3 -68q0 -36 5 -82h589l-56 -109h-510
q12 -36 27 -67q82 -176 253 -267q127 -68 279 -68q162 0 311 89v-134q-139 -64 -317 -64q-282 0 -476 174q-154 138 -211 337z" />
    <glyph glyph-name="uni2101" unicode="&#x2101;" horiz-adv-x="1709" vert-adv-y="2457" 
d="M365 1402l378 -856h-96l-106 242h-346l-106 -242h-95zM507 864l-71 162q-46 105 -70 165q-14 -37 -60 -146l-78 -181h279zM459 -382l779 1918h112l-779 -1918h-112zM1210 163l78 38q21 -51 34 -72q40 -63 121 -63q71 0 115 51q31 37 31 94q0 65 -40 108q-28 30 -101 66
q-100 50 -136 81q-75 62 -75 162q0 108 87 166q56 37 137 37q112 0 173 -77q22 -27 42 -73l-79 -38q-49 110 -141 110q-55 0 -93 -35q-34 -33 -34 -85q0 -58 43 -100q26 -26 93 -58q104 -51 146 -91q71 -69 71 -167q0 -108 -79 -177q-61 -52 -159 -52q-128 0 -193 91
q-22 32 -41 84z" />
    <glyph glyph-name="uni2105" unicode="&#x2105;" horiz-adv-x="457" vert-adv-y="2457" 
d="M228 799q47 0 81 -33q36 -34 36 -84q0 -48 -34 -82q-33 -34 -82 -34q-48 0 -82 33q-35 35 -35 85q0 46 32 79q35 36 84 36z" />
    <glyph glyph-name="uni2113" unicode="&#x2113;" vert-adv-y="2457" 
d="M502 552q-69 -349 -69 -442q0 -49 40 -49q55 0 109 116q16 35 36 35q24 0 24 -26q0 -38 -45 -105q-73 -109 -159 -109q-67 0 -102 54q-28 43 -28 108q0 77 27 292q-93 -87 -112 -87q-7 0 -15 8q-9 8 -9 18q0 16 45 56q42 35 106 106q73 377 167 621q93 242 227 242
q55 0 86 -43q32 -44 32 -114q0 -172 -120 -380q-71 -123 -240 -301zM522 666q146 159 211 311q61 139 61 252q0 53 -21 77q-14 16 -31 16q-22 0 -40 -17q-40 -38 -73 -149q-49 -160 -107 -490z" />
    <glyph glyph-name="uni2117" unicode="&#x2117;" horiz-adv-x="229" vert-adv-y="2457" 
d="M72 546v517h85v-517h-85zM113 1333q23 0 39 -16q17 -16 17 -40q0 -22 -15 -38q-17 -18 -41 -18q-23 0 -39 16q-17 17 -17 42q0 23 17 38q17 16 39 16z" />
    <glyph glyph-name="trademark" unicode="&#x2122;" horiz-adv-x="1388" vert-adv-y="2457" 
d="M198 587v703h-201v75h489v-75h-202v-703h-86zM503 587l142 817l255 -564q18 -39 38 -89q20 52 35 85l254 569l140 -818h-87l-79 470q-5 31 -9 71l-3 -7q-12 -30 -16 -38l-235 -529l-238 528q-10 22 -19 45q-1 -22 -9 -67l-80 -473h-89z" />
    <glyph glyph-name="Omega" unicode="&#x2126;" horiz-adv-x="1365" vert-adv-y="2457" 
d="M58 0v105h391q-391 226 -391 636q0 319 234 516q169 141 391 141q221 0 390 -141q234 -196 234 -516q0 -411 -391 -636h391v-105h-529v96q151 86 234 177q177 193 177 457q0 265 -186 436q-138 127 -317 127q-177 0 -314 -115q-195 -165 -195 -449q0 -400 411 -633v-96
h-530z" />
    <glyph glyph-name="onethird" unicode="&#x2153;" horiz-adv-x="1476" vert-adv-y="2457" 
d="M260 546v741h-123l41 78h172v-819h-90zM1107 1367l-629 -1365h-109l625 1365h113zM924 204h92q4 -57 30 -88q41 -50 119 -50q79 0 124 52q34 39 34 101q0 103 -75 144q-31 17 -120 21v78q71 0 106 15q30 13 50 46q23 38 23 89q0 74 -46 112q-35 29 -90 29
q-121 0 -135 -129h-92q9 207 225 207q108 0 169 -56q61 -58 61 -157q0 -143 -120 -195q136 -53 136 -200q0 -123 -81 -186q-65 -49 -171 -49q-128 0 -193 76q-44 52 -46 140z" />
    <glyph glyph-name="twothirds" unicode="&#x2154;" horiz-adv-x="1476" vert-adv-y="2457" 
d="M56 546l264 350q44 59 74 109q43 74 43 149q0 67 -40 109q-34 36 -96 36q-105 0 -135 -95q-8 -25 -11 -92h-92q2 100 29 152q59 113 208 113q110 0 173 -66q57 -60 57 -158q0 -127 -113 -276l-190 -253h294v-78h-465zM1106 1367l-629 -1365h-109l625 1365h113zM922 204
h92q4 -57 30 -88q42 -50 120 -50q79 0 123 52q35 39 35 101q0 103 -76 144q-30 17 -119 21v78q71 0 106 15q30 13 50 46q23 38 23 89q0 74 -46 112q-35 29 -90 29q-122 0 -136 -129h-92q9 207 226 207q108 0 168 -56q62 -58 62 -157q0 -143 -121 -195q137 -53 137 -200
q0 -123 -82 -186q-64 -49 -171 -49q-127 0 -193 76q-44 52 -46 140z" />
    <glyph glyph-name="uni2155" unicode="&#x2155;" horiz-adv-x="1476" vert-adv-y="2457" 
d="M260 546v741h-123l41 78h172v-819h-90zM1107 1367l-629 -1365h-109l625 1365h113zM917 112l63 53q34 -43 60 -63q45 -36 105 -36q92 0 144 72q36 50 36 120q0 102 -71 154q-51 36 -125 36q-79 0 -173 -56l94 427h356v-78h-282l-50 -224q40 9 78 9q81 0 143 -37
q122 -75 122 -230q0 -115 -74 -191q-79 -80 -201 -80q-140 0 -225 124z" />
    <glyph glyph-name="uni2156" unicode="&#x2156;" horiz-adv-x="1476" vert-adv-y="2457" 
d="M56 546l264 350q44 59 74 109q43 74 43 149q0 67 -40 109q-34 36 -96 36q-105 0 -135 -95q-8 -25 -11 -92h-92q2 100 29 152q59 113 208 113q110 0 173 -66q57 -60 57 -158q0 -127 -113 -276l-190 -253h294v-78h-465zM1106 1367l-629 -1365h-109l625 1365h113zM917 112
l63 53q34 -43 60 -63q44 -36 104 -36q93 0 145 72q36 50 36 120q0 102 -71 154q-51 36 -125 36q-79 0 -174 -56l95 427h356v-78h-282l-51 -224q41 9 78 9q81 0 143 -37q123 -75 123 -230q0 -115 -75 -191q-78 -80 -201 -80q-139 0 -224 124z" />
    <glyph glyph-name="uni2157" unicode="&#x2157;" horiz-adv-x="1476" vert-adv-y="2457" 
d="M49 750h92q4 -57 30 -88q41 -50 119 -50q79 0 124 52q34 39 34 101q0 103 -75 144q-31 17 -120 21v78q71 0 106 15q30 13 50 46q23 38 23 89q0 74 -46 112q-35 29 -90 29q-121 0 -135 -129h-92q9 207 225 207q108 0 168 -56q62 -58 62 -157q0 -143 -120 -195
q136 -53 136 -201q0 -123 -82 -185q-64 -49 -170 -49q-127 0 -193 76q-45 52 -46 140zM1107 1367l-629 -1365h-109l625 1365h113zM918 112l63 53q34 -43 60 -63q45 -36 105 -36q92 0 144 72q36 50 36 120q0 102 -71 154q-51 36 -125 36q-79 0 -173 -56l94 427h356v-78h-282
l-50 -224q41 9 78 9q81 0 143 -37q122 -75 122 -230q0 -115 -74 -191q-79 -80 -201 -80q-140 0 -225 124z" />
    <glyph glyph-name="uni2158" unicode="&#x2158;" horiz-adv-x="1476" vert-adv-y="2457" 
d="M32 727l451 703v-625h84v-78h-84v-181h-90v181h-361zM188 805h200v201q0 70 3 129q-17 -31 -49 -83l-30 -50zM1106 1367l-629 -1365h-108l625 1365h112zM917 112l63 53q34 -43 60 -63q44 -36 104 -36q93 0 145 72q36 50 36 120q0 102 -71 154q-51 36 -125 36
q-79 0 -174 -56l95 427h356v-78h-282l-51 -224q41 9 78 9q82 0 143 -37q123 -75 123 -230q0 -115 -74 -191q-79 -80 -201 -80q-140 0 -225 124z" />
    <glyph glyph-name="uni2159" unicode="&#x2159;" horiz-adv-x="1476" vert-adv-y="2457" 
d="M260 546v741h-123l41 78h172v-819h-90zM1107 1367l-629 -1365h-109l625 1365h113zM1288 842l73 -51l-245 -325q54 11 82 11q107 0 180 -87q54 -63 54 -156q0 -113 -75 -182q-70 -64 -180 -64q-122 0 -194 76q-64 69 -64 174q0 84 46 165q17 29 70 100zM1175 399
q-84 0 -128 -58q-36 -47 -36 -105q0 -83 57 -131q48 -39 109 -39q80 0 127 58q36 44 36 110q0 69 -42 115q-44 50 -123 50z" />
    <glyph glyph-name="uni215A" unicode="&#x215a;" horiz-adv-x="1476" vert-adv-y="2457" 
d="M43 658l63 53q34 -43 59 -63q45 -36 105 -36q93 0 145 72q35 50 35 120q0 102 -71 154q-50 36 -124 36q-80 0 -174 -56l94 427h357v-78h-282l-51 -224q41 9 78 9q81 0 143 -37q122 -75 122 -230q0 -115 -74 -191q-79 -80 -201 -80q-140 0 -224 124zM1106 1367l-629 -1365
h-109l625 1365h113zM1287 842l73 -51l-245 -325q54 11 82 11q106 0 180 -87q53 -63 53 -156q0 -113 -74 -182q-71 -64 -181 -64q-121 0 -193 76q-65 69 -65 174q0 83 47 165q15 27 70 100zM1174 399q-85 0 -129 -58q-35 -46 -35 -105q0 -83 57 -131q48 -39 109 -39
q79 0 126 58q36 44 36 110q0 69 -41 115q-45 50 -123 50z" />
    <glyph glyph-name="oneeighth" unicode="&#x215b;" horiz-adv-x="1476" vert-adv-y="2457" 
d="M260 546v741h-123l41 78h172v-819h-90zM1107 1367l-629 -1365h-109l625 1365h113zM1300 428q115 -63 115 -198q0 -106 -61 -170q-68 -72 -178 -72q-105 0 -177 68q-63 61 -63 171q0 136 113 201q-87 70 -87 180q0 100 64 162q29 28 73 45q42 16 79 16q56 0 112 -33
q99 -57 99 -193q0 -68 -28 -115q-16 -28 -61 -62zM1174 753q-47 0 -81 -35q-39 -40 -39 -109q0 -73 39 -112q34 -34 83 -34t83 35q38 40 38 106t-33 107q-34 42 -90 42zM1175 383q-63 0 -102 -37q-45 -42 -45 -119q0 -73 40 -117t104 -44q70 0 112 47q39 43 39 112
q0 75 -42 117q-40 41 -106 41z" />
    <glyph glyph-name="threeeighths" unicode="&#x215c;" horiz-adv-x="1476" vert-adv-y="2457" 
d="M49 750h92q4 -57 30 -88q41 -50 119 -50q79 0 124 52q34 39 34 101q0 103 -75 144q-31 17 -120 21v78q71 0 106 15q30 13 50 46q23 38 23 89q0 74 -46 112q-35 29 -90 29q-121 0 -135 -129h-92q9 207 225 207q108 0 168 -56q62 -58 62 -157q0 -143 -120 -195
q136 -53 136 -201q0 -123 -82 -185q-64 -49 -170 -49q-127 0 -193 76q-45 52 -46 140zM1107 1367l-629 -1365h-109l625 1365h113zM1300 428q115 -63 115 -198q0 -106 -61 -170q-68 -72 -178 -72q-105 0 -177 68q-63 61 -63 171q0 136 114 201q-88 70 -88 180q0 100 64 162
q64 61 152 61q57 0 113 -33q99 -57 99 -193q0 -68 -28 -115q-17 -28 -62 -62zM1174 753q-47 0 -81 -35q-39 -40 -39 -109q0 -73 39 -112q34 -34 83 -34q50 0 84 35q38 40 38 106t-33 107q-34 42 -91 42zM1175 383q-63 0 -102 -37q-45 -42 -45 -119q0 -73 40 -117
q39 -44 104 -44q69 0 112 47q39 43 39 112q0 76 -42 117q-40 41 -106 41z" />
    <glyph glyph-name="fiveeighths" unicode="&#x215d;" horiz-adv-x="1476" vert-adv-y="2457" 
d="M43 658l63 53q34 -43 59 -63q45 -36 105 -36q93 0 145 72q35 50 35 120q0 102 -71 154q-50 36 -124 36q-80 0 -174 -56l94 427h357v-78h-282l-51 -224q41 9 78 9q81 0 143 -37q122 -75 122 -230q0 -115 -74 -191q-79 -80 -201 -80q-140 0 -224 124zM1106 1367l-629 -1365
h-109l625 1365h113zM1299 428q115 -63 115 -198q0 -106 -62 -170q-68 -72 -177 -72q-106 0 -177 68q-64 61 -64 171q0 136 114 201q-87 70 -87 180q0 100 65 162q63 61 151 61q56 0 113 -33q98 -57 98 -193q0 -68 -28 -115q-16 -28 -61 -62zM1173 753q-47 0 -80 -35
q-40 -40 -40 -109q0 -73 40 -112q33 -34 82 -34q50 0 84 35q38 40 38 106t-33 107q-35 42 -91 42zM1173 383q-62 0 -102 -37q-45 -42 -45 -119q0 -73 40 -117t104 -44q70 0 112 47q39 43 39 112q0 75 -41 117q-40 41 -107 41z" />
    <glyph glyph-name="seveneighths" unicode="&#x215e;" horiz-adv-x="1476" vert-adv-y="2457" 
d="M57 546l396 741h-384v78h529l-440 -819h-101zM1107 1367l-629 -1365h-108l625 1365h112zM1301 428q114 -63 114 -198q0 -106 -61 -170q-68 -72 -178 -72q-105 0 -177 68q-63 61 -63 171q0 136 114 201q-88 70 -88 180q0 100 64 162q29 28 74 45q41 16 78 16q57 0 113 -33
q99 -57 99 -193q0 -68 -28 -115q-17 -28 -61 -62zM1174 753q-47 0 -81 -35q-39 -40 -39 -109q0 -73 39 -112q34 -34 83 -34q50 0 84 35q38 40 38 106t-33 107q-34 42 -91 42zM1175 383q-63 0 -102 -37q-45 -42 -45 -119q0 -73 40 -117t104 -44q69 0 112 47q39 43 39 112
q0 76 -42 117q-40 41 -106 41z" />
    <glyph glyph-name="arrowleft" unicode="&#x2190;" horiz-adv-x="1365" vert-adv-y="2457" 
d="M1338 744v-104h-1024q24 -30 60 -96q47 -86 47 -117q0 -28 -30 -28q-17 0 -47 35q-106 122 -270 212q-47 25 -47 42q0 19 34 38q100 57 165 106q60 46 132 131q16 19 32 19q31 0 31 -31q0 -21 -42 -105q-21 -42 -65 -102h1024z" />
    <glyph glyph-name="arrowup" unicode="&#x2191;" horiz-adv-x="1365" vert-adv-y="2457" 
d="M737 27h-104v1024q-31 -25 -96 -60q-86 -47 -117 -47q-28 0 -28 31q0 16 35 46q123 107 212 270q25 47 42 47q19 0 38 -34q56 -99 106 -165q48 -62 131 -132q19 -16 19 -32q0 -31 -31 -31q-20 0 -105 42q-41 21 -102 65v-1024z" />
    <glyph glyph-name="arrowright" unicode="&#x2192;" horiz-adv-x="1365" vert-adv-y="2457" 
d="M27 636v104h1024q-24 30 -60 96q-47 86 -47 116q0 29 30 29q17 0 47 -35q107 -123 270 -212q47 -25 47 -42q0 -19 -34 -38q-100 -57 -165 -107q-62 -47 -132 -130q-16 -19 -32 -19q-31 0 -31 31q0 20 42 105q21 42 65 102h-1024z" />
    <glyph glyph-name="arrowdown" unicode="&#x2193;" horiz-adv-x="1365" vert-adv-y="2457" 
d="M629 1338h104v-1024q30 25 96 60q86 47 117 47q28 0 28 -31q0 -16 -35 -46q-122 -106 -212 -270q-25 -47 -42 -47q-19 0 -38 34q-54 94 -106 165q-46 60 -131 132q-19 16 -19 32q0 31 31 31q20 0 105 -42q42 -21 102 -65v1024z" />
    <glyph glyph-name="arrowboth" unicode="&#x2194;" horiz-adv-x="1365" vert-adv-y="2457" 
d="M312 635q45 -61 72 -117q36 -71 36 -91q0 -30 -31 -30q-12 0 -22 8q-5 5 -26 30q-79 95 -223 183q-49 30 -70 43q-21 11 -21 30q0 16 47 42q165 92 269 212q31 35 47 35q30 0 30 -29q0 -30 -48 -116q-35 -64 -60 -96h739q-24 29 -60 96q-47 86 -47 117q0 28 30 28
q17 0 47 -35q106 -121 270 -212q47 -25 47 -42q0 -19 -34 -38q-100 -57 -165 -106q-62 -48 -132 -131q-16 -19 -32 -19q-31 0 -31 31q0 21 42 105q21 42 65 102h-739z" />
    <glyph glyph-name="arrowupdn" unicode="&#x2195;" horiz-adv-x="1365" vert-adv-y="2457" 
d="M737 312q61 45 117 73q71 36 91 36q30 0 30 -31q0 -13 -8 -22q-5 -5 -30 -26q-94 -79 -183 -223q-29 -48 -43 -71q-11 -21 -30 -21q-17 0 -42 47q-90 164 -212 270q-35 30 -35 47q0 30 29 30q30 0 116 -48q64 -35 96 -61v739q-30 -24 -96 -60q-86 -47 -116 -47
q-29 0 -29 30q0 17 35 47q123 107 212 270q25 47 42 47q19 0 38 -34q57 -100 106 -165q49 -62 131 -132q19 -16 19 -32q0 -31 -31 -31q-20 0 -105 42q-42 21 -102 65v-739z" />
    <glyph glyph-name="arrowupdnbse" unicode="&#x21a8;" horiz-adv-x="1365" vert-adv-y="2457" 
d="M737 312q61 45 117 73q71 36 91 36q30 0 30 -31q0 -13 -8 -22q-5 -5 -30 -26q-93 -78 -183 -223q-28 -46 -43 -71q-11 -21 -30 -21q-17 0 -42 47q-90 164 -212 270q-35 30 -35 47q0 30 28 30q31 0 117 -48q64 -35 96 -61v739q-30 -24 -96 -60q-86 -47 -116 -47
q-29 0 -29 30q0 17 35 47q123 107 212 270q25 47 42 47q19 0 38 -34q57 -100 106 -165q49 -62 131 -132q19 -16 19 -32q0 -31 -31 -31q-20 0 -105 42q-42 21 -102 65v-739zM413 -139h540v-88h-540v88z" />
    <glyph glyph-name="partialdiff" unicode="&#x2202;" vert-adv-y="2457" 
d="M188 1271l15 104q162 -23 269 -70q249 -109 378 -364q104 -207 104 -452q0 -192 -80 -315q-65 -100 -171 -153q-89 -45 -188 -45q-154 0 -277 103q-63 52 -104 122q-63 109 -63 237q0 148 84 270q65 97 169 145q85 39 176 39q136 0 227 -70q38 -29 88 -98q-7 20 -11 30
q-49 132 -80 182q-93 147 -255 241q-121 70 -281 94zM526 802q-123 0 -215 -82q-50 -44 -82 -113q-40 -85 -40 -176q0 -163 110 -272q92 -92 216 -92q117 0 206 85q115 109 115 293q0 185 -113 282q-88 75 -197 75z" />
    <glyph glyph-name="emptyset" unicode="&#x2205;" horiz-adv-x="1266" vert-adv-y="2457" 
d="M899 1365l98 -51l-98 -181q231 -161 231 -416q0 -141 -75 -262q-65 -105 -170 -167q-119 -69 -263 -69q-94 0 -162 33l-128 -251l-100 51l126 249q-221 162 -221 414q0 228 171 376q140 121 328 121q82 0 166 -29zM514 353q66 -18 119 -18q168 0 283 123q100 108 100 257
q0 150 -100 260q-25 28 -64 52zM749 1079q-57 17 -110 17q-184 0 -299 -138q-89 -107 -89 -242q0 -183 159 -310z" />
    <glyph glyph-name="Delta" unicode="&#x2206;" horiz-adv-x="1365" vert-adv-y="2457" 
d="M63 0l557 1365h123l560 -1365h-1240zM230 108h904l-452 1115z" />
    <glyph glyph-name="product" unicode="&#x220f;" horiz-adv-x="1411" vert-adv-y="2457" 
d="M73 1536h1265v-108h-160v-1832h160v-108h-446v108h170v1832h-713v-1832h169v-108h-445v108h160v1832h-160v108z" />
    <glyph glyph-name="summation" unicode="&#x2211;" horiz-adv-x="1365" vert-adv-y="2457" 
d="M1212 1536v-455h-107l-9 345h-906l519 -872l-519 -958h925l5 343h111v-451h-1170v123l512 943l-512 863v119h1151z" />
    <glyph glyph-name="minus" unicode="&#x2212;" horiz-adv-x="915" vert-adv-y="2457" 
d="M61 625v116h792v-116h-792z" />
    <glyph glyph-name="uni2218" unicode="&#x2218;" vert-adv-y="2457" 
d="M516 982q112 0 194 -83q83 -84 83 -203q0 -118 -82 -202q-83 -84 -199 -84t-198 83q-84 84 -84 203q0 121 84 203q84 83 202 83zM514 885q-79 0 -133 -55q-55 -55 -55 -134q0 -78 55 -134q55 -55 131 -55t131 55q54 56 54 134q0 80 -55 134q-55 55 -128 55z" />
    <glyph glyph-name="radical" unicode="&#x221a;" horiz-adv-x="1365" vert-adv-y="2457" 
d="M1365 1696v-108h-412l-470 -1588h-137l-182 629h-164v108h258l86 -288q8 -24 32 -127l28 -118l8 -33h7q9 38 47 183l55 212l100 336l234 794h510z" />
    <glyph glyph-name="infinity" unicode="&#x221e;" horiz-adv-x="1365" vert-adv-y="2457" 
d="M685 618q-156 -229 -343 -229q-155 0 -240 111q-63 83 -63 200q0 168 128 253q79 53 178 53q184 0 336 -229q153 229 345 229q157 0 241 -115q60 -81 60 -195q0 -148 -95 -233q-86 -75 -205 -75q-192 0 -342 230zM742 698q37 -58 69 -97q94 -113 204 -113q92 0 148 67
q48 57 48 142q0 109 -75 167q-55 42 -123 42q-116 0 -210 -121q-21 -27 -42 -59zM624 696q-36 58 -69 97q-94 113 -204 113q-91 0 -148 -67q-48 -56 -48 -141q0 -110 75 -167q55 -42 123 -42q115 0 210 120q20 26 43 59z" />
    <glyph glyph-name="orthogonal" unicode="&#x221f;" horiz-adv-x="686" vert-adv-y="2457" 
d="M39 957h608v-81h-608v81z" />
    <glyph glyph-name="intersection" unicode="&#x2229;" horiz-adv-x="1139" vert-adv-y="2457" 
d="M1052 0h-116v651q0 188 -10 276q-14 123 -72 197q-49 61 -123 97q-80 39 -162 39q-124 0 -226 -78q-56 -42 -86 -98.5t-42 -144.5q-13 -88 -13 -288v-651h-116v645q0 235 12 320q28 199 183 311q124 89 288 89t288 -89q155 -112 183 -311q12 -87 12 -320v-645z" />
    <glyph glyph-name="union" unicode="&#x222a;" horiz-adv-x="1139" vert-adv-y="2457" 
d="M86 1365h116v-651q0 -188 10 -276q14 -123 72 -197q49 -61 123 -97q80 -39 162 -39q124 0 226 78q69 53 100 129q36 87 39 245q2 76 2 157v651h116v-645q0 -235 -12 -320q-28 -199 -183 -311q-124 -89 -288 -89t-288 89q-155 112 -183 311q-12 87 -12 320v645z" />
    <glyph glyph-name="integral" unicode="&#x222b;" vert-adv-y="2457" 
d="M223 -489l28 103q50 -20 87 -20q92 0 109 85q7 35 7 154v1339q0 180 16 234q19 59 73 96q53 35 134 35q53 0 124 -23l-29 -103q-48 21 -86 21q-92 0 -109 -86q-7 -35 -7 -201v-1292q0 -146 -9 -200q-14 -83 -85 -126q-60 -36 -149 -36q-54 0 -104 20z" />
    <glyph glyph-name="uni222E" unicode="&#x222e;" vert-adv-y="2457" 
d="M220 -489l29 103q49 -20 86 -20q93 0 109 85q8 39 8 154v347q-85 13 -159 67q-64 46 -102 120q-40 78 -40 162q0 115 70 210q80 109 231 139v314q0 162 17 214q18 58 72 95q51 36 133 36q52 0 124 -23l-29 -103q-48 21 -86 21q-92 0 -109 -86q-7 -34 -7 -154v-314
q100 -19 161 -64q67 -50 105 -123q39 -77 39 -162q0 -116 -69 -210q-86 -117 -236 -139v-327q0 -153 -7 -200q-14 -83 -86 -126q-61 -36 -150 -36q-53 0 -104 20zM567 796v-533q76 19 117 52q99 81 99 214q0 88 -48 159q-54 79 -168 108zM452 263v532q-68 -15 -112 -51
q-100 -82 -100 -214q0 -88 49 -159q56 -83 163 -108z" />
    <glyph glyph-name="uni2236" unicode="&#x2236;" horiz-adv-x="457" vert-adv-y="2457" 
d="M228 556q47 0 81 -33q36 -34 36 -84q0 -48 -34 -82q-33 -34 -82 -34q-48 0 -82 33q-35 35 -35 85q0 46 32 79q35 36 84 36zM228 1043q47 0 81 -33q36 -34 36 -84q0 -48 -34 -82q-33 -34 -82 -34q-48 0 -82 33q-35 35 -35 85q0 46 32 79q35 36 84 36z" />
    <glyph glyph-name="similar" unicode="&#x223c;" vert-adv-y="2457" 
d="M93 552l-72 46q33 67 76 122q79 100 196 100q79 0 234 -76q104 -52 141 -61q35 -10 64 -10q74 0 125 52q34 34 72 99l73 -44q-111 -218 -283 -218q-34 0 -84 16q-54 17 -78 28l-122 59q-94 45 -150 45q-69 0 -122 -57q-34 -36 -70 -101z" />
    <glyph glyph-name="approxequal" unicode="&#x2248;" vert-adv-y="2457" 
d="M93 712l-72 46q34 69 76 122q79 100 197 100q78 0 233 -76q105 -52 141 -62q34 -9 64 -9q74 0 125 52q34 34 72 99l73 -44q-111 -218 -283 -218q-34 0 -84 16q-53 16 -78 28l-122 59q-94 45 -150 45q-69 0 -122 -57q-34 -36 -70 -101zM93 391l-72 46q34 69 76 122
q79 100 197 100q78 0 233 -76q105 -52 141 -61q35 -10 64 -10q74 0 125 52q34 34 72 99l73 -44q-112 -218 -283 -218q-34 0 -84 16q-53 16 -78 28l-122 59q-94 45 -149 45q-70 0 -123 -57q-34 -36 -70 -101z" />
    <glyph glyph-name="notequal" unicode="&#x2260;" vert-adv-y="2457" 
d="M563 893l111 233l85 -29l-97 -204h294v-103h-342l-96 -205h438v-103h-487l-116 -245l-84 29l101 216h-302v103h350l96 205h-446v103h495z" />
    <glyph glyph-name="equivalence" unicode="&#x2261;" vert-adv-y="2457" 
d="M68 1031h887v-105h-887v105zM68 740h887v-105h-887v105zM68 448h887v-105h-887v105z" />
    <glyph glyph-name="lessequal" unicode="&#x2264;" vert-adv-y="2457" 
d="M955 1214v-112l-762 -334l762 -333v-113l-887 393v103zM955 261v-108h-887v108h887z" />
    <glyph glyph-name="greaterequal" unicode="&#x2265;" vert-adv-y="2457" 
d="M68 322v113l762 333l-762 334v112l887 -396v-103zM68 153v108h887v-108h-887z" />
    <glyph glyph-name="dotmath" unicode="&#x22c5;" horiz-adv-x="410" vert-adv-y="2457" 
d="M204 524q40 0 68 -27q30 -29 30 -71q0 -39 -28 -67q-28 -29 -69 -29q-39 0 -68 28q-29 29 -29 71q0 38 26 65q29 30 70 30z" />
    <glyph glyph-name="house" unicode="&#x2302;" horiz-adv-x="1538" vert-adv-y="2457" 
d="M172 0v821l597 672l597 -672v-821h-1194zM276 104h986v672l-493 553l-493 -553v-672z" />
    <glyph glyph-name="revlogicalnot" unicode="&#x2310;" vert-adv-y="2457" 
d="M184 0h-116v546h887v-108h-771v-438z" />
    <glyph glyph-name="uni2319" unicode="&#x2319;" vert-adv-y="2457" 
d="M184 546v-438h771v-108h-887v546h116z" />
    <glyph glyph-name="integraltp" unicode="&#x2320;" vert-adv-y="2457" 
d="M570 -512h-116v1690q0 174 17 227q17 57 68 93q54 38 138 38q52 0 124 -22l-29 -103q-49 20 -86 20q-92 0 -109 -85q-7 -35 -7 -154v-1704z" />
    <glyph glyph-name="integralbt" unicode="&#x2321;" vert-adv-y="2457" 
d="M454 1536h116v-1690q0 -174 -16 -227q-18 -57 -69 -93q-54 -38 -137 -38q-52 0 -124 23l28 103q49 -21 86 -21q92 0 109 85q7 35 7 155v1703z" />
    <glyph glyph-name="filledbox" unicode="&#x25a0;" horiz-adv-x="1365" vert-adv-y="2457" 
d="M1365 0h-1365v1365h1365v-1365z" />
    <glyph glyph-name="H22073" unicode="&#x25a1;" horiz-adv-x="1365" vert-adv-y="2457" 
d="M1365 0h-1365v1365h1365v-1365zM1269 96v1173h-1173v-1173h1173z" />
    <glyph glyph-name="H18551" unicode="&#x25ab;" horiz-adv-x="686" vert-adv-y="2457" 
d="M39 957h261v254h84v-254h263v-81h-263v-254h-84v254h-261v81z" />
    <glyph glyph-name="filledrect" unicode="&#x25ac;" horiz-adv-x="1365" vert-adv-y="2457" 
d="M1365 683v-683h-1365v683h1365z" />
    <glyph glyph-name="uni25AE" unicode="&#x25ae;" horiz-adv-x="1365" vert-adv-y="2457" 
d="M1024 0h-683v1365h683v-1365z" />
    <glyph glyph-name="uni25AF" unicode="&#x25af;" horiz-adv-x="1365" vert-adv-y="2457" 
d="M684 1207q219 0 376 -153q156 -153 156 -370q0 -216 -154 -370q-157 -156 -378 -156q-224 0 -380 156q-154 154 -154 377q0 142 78 267q77 123 213 191q114 58 243 58z" />
    <glyph glyph-name="triagup" unicode="&#x25b2;" horiz-adv-x="1365" vert-adv-y="2457" 
d="M1297 137h-1229l615 1150z" />
    <glyph glyph-name="uni25B4" unicode="&#x25b4;" vert-adv-y="2457" 
d="M956 300h-888l444 830z" />
    <glyph glyph-name="uni25B8" unicode="&#x25b8;" vert-adv-y="2457" 
d="M146 243v888l830 -444z" />
    <glyph glyph-name="uni25B9" unicode="&#x25b9;" horiz-adv-x="409" vert-adv-y="2457" 
d="M392 21q-60 -27 -126 -27q-120 0 -193 79q-61 67 -61 152q0 105 86 175q70 57 169 57q64 0 125 -27v-69q-67 40 -127 40q-87 0 -142 -60q-44 -48 -44 -116q0 -79 60 -130q53 -45 129 -45q54 0 124 40v-69z" />
    <glyph glyph-name="triagdn" unicode="&#x25bc;" horiz-adv-x="1365" vert-adv-y="2457" 
d="M68 1229h1229l-615 -1150z" />
    <glyph glyph-name="uni25BE" unicode="&#x25be;" vert-adv-y="2457" 
d="M68 1065h887l-443 -830z" />
    <glyph glyph-name="uni25C2" unicode="&#x25c2;" vert-adv-y="2457" 
d="M878 1131v-888l-830 444z" />
    <glyph glyph-name="lozenge" unicode="&#x25ca;" horiz-adv-x="1365" vert-adv-y="2457" 
d="M683 1419l531 -736l-531 -736l-532 736zM683 1238l-404 -555l404 -554l403 554z" />
    <glyph glyph-name="circle" unicode="&#x25cb;" horiz-adv-x="1365" vert-adv-y="2457" 
d="M684 1207q219 0 376 -153q156 -153 156 -370q0 -216 -154 -370q-157 -156 -378 -156q-224 0 -380 156q-154 154 -154 377q0 142 78 267q77 123 213 191q114 58 243 58zM683 1113q-181 0 -310 -127q-127 -124 -127 -297q0 -183 126 -309q128 -128 312 -128q181 0 310 128
q126 126 126 304q0 181 -128 303q-131 126 -309 126z" />
    <glyph glyph-name="invbullet" unicode="&#x25d8;" horiz-adv-x="1365" vert-adv-y="2457" 
d="M0 0v1365h1365v-1365h-1365zM687 969q-120 0 -202 -83q-84 -84 -84 -204q0 -119 84 -203q83 -83 198 -83q116 0 199 84q82 84 82 203q0 121 -83 203q-84 83 -194 83z" />
    <glyph glyph-name="invcircle" unicode="&#x25d9;" horiz-adv-x="1365" vert-adv-y="2457" 
d="M683 1113q180 0 309 -126q128 -125 128 -303q0 -177 -127 -304q-128 -128 -310 -128q-183 0 -311 128q-127 126 -127 309q0 117 64 220q63 101 175 157q93 47 199 47zM1365 0h-1365v1365h1365v-1365zM683 1207q-220 0 -378 -154q-155 -152 -155 -362q0 -224 154 -377
q156 -156 379 -156q221 0 378 156q154 154 154 370q0 148 -79 274q-77 124 -212 192q-113 57 -241 57z" />
    <glyph glyph-name="openbullet" unicode="&#x25e6;" vert-adv-y="2457" 
d="M516 982q112 0 194 -83q83 -84 83 -203q0 -118 -82 -202q-83 -84 -199 -84t-198 83q-84 84 -84 203q0 121 84 203q84 83 202 83zM514 885q-79 0 -133 -55q-55 -55 -55 -134q0 -78 55 -134q55 -55 131 -55t131 55q54 56 54 134q0 80 -55 134q-55 55 -128 55z" />
    <glyph glyph-name="smileface" unicode="&#x263a;" horiz-adv-x="1365" vert-adv-y="2457" 
d="M491 953q39 0 66 -30q23 -25 23 -60q0 -40 -30 -67q-25 -23 -60 -23q-40 0 -67 30q-23 26 -23 61q0 38 30 66q25 23 61 23zM889 954q39 0 66 -30q23 -26 23 -60q0 -41 -30 -68q-26 -23 -60 -23q-41 0 -68 30q-23 26 -23 61q0 39 30 67q26 23 62 23zM1106 762
q-10 -137 -34 -204q-50 -139 -160 -209q-96 -61 -228 -61q-224 0 -337 169q-46 68 -65 148q-12 52 -20 157q19 -82 44 -125q58 -98 160 -152q92 -49 218 -49q212 0 337 144q41 48 61 99q11 27 24 83zM693 1331q166 0 314 -87q151 -89 237 -237q87 -150 87 -324t-87 -325
q-87 -150 -237 -237q-151 -87 -324 -87q-174 0 -325 87t-237 237q-87 152 -87 330q0 280 215 476q183 167 444 167zM693 1245q-259 0 -427 -187q-145 -160 -145 -371q0 -255 186 -423q160 -144 376 -144q151 0 282 75q131 76 206 206q75 131 75 282q0 246 -186 417
q-87 80 -199 116q-90 29 -168 29z" />
    <glyph glyph-name="invsmileface" unicode="&#x263b;" horiz-adv-x="1365" vert-adv-y="2457" 
d="M693 1331q166 0 314 -87q151 -89 237 -237q87 -150 87 -324t-87 -325q-87 -150 -237 -237q-151 -87 -324 -87q-174 0 -325 87t-237 237q-87 152 -87 330q0 280 215 476q183 167 444 167zM491 953q-41 0 -68 -30q-23 -26 -23 -59q0 -41 30 -68q25 -23 60 -23q40 0 67 30
q23 25 23 60q0 40 -30 67q-25 23 -59 23zM889 954q-42 0 -69 -30q-23 -26 -23 -60q0 -41 30 -69q26 -23 61 -23q40 0 67 30q23 26 23 61q0 40 -30 68q-25 23 -59 23zM1106 761q-19 -82 -44 -124q-58 -98 -160 -153q-92 -48 -218 -48q-212 0 -337 144q-41 48 -62 99
q-10 27 -23 82q10 -136 34 -203q50 -138 160 -209q96 -61 228 -61q224 0 337 169q46 69 65 148q12 52 20 156z" />
    <glyph glyph-name="sun" unicode="&#x263c;" horiz-adv-x="1365" vert-adv-y="2457" 
d="M326 968l-153 152l72 72l154 -153q104 81 232 98v215h103v-216q133 -18 233 -96l153 152l72 -72l-153 -152q78 -101 96 -232h216v-105h-216q-17 -132 -96 -233l153 -153l-72 -72l-153 153q-103 -79 -233 -97v-215h-103v216q-119 13 -233 95l-153 -152l-72 72l152 152
q-79 102 -94 234h-216v105h215q18 129 96 232zM688 1010q-150 0 -248 -108q-84 -93 -84 -216q0 -148 108 -246q93 -84 219 -84q145 0 242 108q84 94 84 220q0 143 -108 242q-92 84 -213 84z" />
    <glyph glyph-name="female" unicode="&#x2640;" horiz-adv-x="1365" vert-adv-y="2457" 
d="M632 644q-93 14 -166 68q-72 53 -112 133t-40 170q0 155 109 265q107 109 259 109t260 -108q110 -110 110 -266q0 -122 -72 -222q-91 -125 -250 -150v-214h334v-88h-334v-341h-98v341h-330v88h330v215zM688 1293q-117 0 -197 -80q-81 -81 -81 -197q0 -115 82 -197
q79 -80 191 -80q113 0 193 81t80 196q0 117 -80 196q-82 81 -188 81z" />
    <glyph glyph-name="male" unicode="&#x2642;" horiz-adv-x="1365" vert-adv-y="2457" 
d="M856 712q73 -100 73 -225q0 -154 -108 -264q-107 -110 -260 -110q-151 0 -259 108q-110 111 -110 267t109 266q108 109 260 109q126 0 229 -81l309 308q-103 24 -216 83q-44 23 -44 48q0 24 27 24q12 0 41 -6q86 -18 170 -18q113 0 216 27q11 3 20 3q21 0 21 -21
q0 -8 -10 -46q-21 -80 -21 -179q0 -88 18 -172q6 -29 6 -40q0 -28 -25 -28q-16 0 -26 11q-42 48 -70 125q-31 84 -39 121zM565 767q-116 0 -196 -80q-81 -81 -81 -198q0 -115 81 -197q80 -80 192 -80q113 0 192 81q80 82 80 196q0 118 -80 197q-82 81 -188 81z" />
    <glyph glyph-name="spade" unicode="&#x2660;" horiz-adv-x="1365" vert-adv-y="2457" 
d="M220 0v38q129 24 193 50q113 46 187 166q64 104 73 268q-18 -39 -28 -56q-34 -60 -97 -101q-80 -52 -172 -52q-97 0 -169 71q-77 76 -77 185q0 93 48 165q60 92 165 180q162 136 247 265q60 92 89 225q41 -120 64 -167q38 -78 102 -148q60 -65 142 -140
q114 -103 156 -154q92 -114 92 -230q0 -89 -54 -157q-75 -94 -196 -94q-172 0 -285 207q7 -105 29 -174q39 -127 148 -208q74 -55 229 -90q17 -3 56 -11v-38h-942z" />
    <glyph glyph-name="club" unicode="&#x2663;" horiz-adv-x="1365" vert-adv-y="2457" 
d="M1149 0h-933v38q183 33 257 85q168 117 191 346q3 34 5 92q-45 -77 -69 -108q-51 -64 -123 -104q-87 -49 -176 -49q-130 0 -219 103q-76 87 -76 208q0 129 83 219q76 82 187 82q55 0 121 -31q12 -5 55 -27q-72 108 -72 204q0 122 89 208q89 85 214 85q123 0 210 -81
q93 -87 93 -212q0 -98 -73 -204q58 28 76 36q49 22 101 22q117 0 195 -93q74 -88 74 -207q0 -141 -98 -232q-86 -80 -202 -80q-104 0 -207 71q-68 47 -123 136q-9 15 -32 54q3 -133 28 -214q37 -121 145 -207q53 -43 124 -66q52 -16 155 -36v-38z" />
    <glyph glyph-name="heart" unicode="&#x2665;" horiz-adv-x="1365" vert-adv-y="2457" 
d="M680 -22q-35 136 -97 245q-73 126 -165 251l-118 160q-91 124 -125 186q-60 110 -60 213q0 119 79 198q76 77 186 77q153 0 245 -139q28 -43 55 -126q31 105 80 162q90 105 221 105q123 0 204 -93q66 -76 66 -175q0 -135 -99 -296q-40 -65 -126 -174q-168 -215 -247 -353
q-67 -118 -99 -241z" />
    <glyph glyph-name="diamond" unicode="&#x2666;" horiz-adv-x="1365" vert-adv-y="2457" 
d="M682 1419q86 -158 283 -429q152 -209 237 -305q-49 -55 -267 -346q-135 -182 -253 -392q-43 87 -199 312q-119 171 -295 395l-24 31q46 54 261 337q143 189 257 397z" />
    <glyph glyph-name="musicalnote" unicode="&#x266a;" horiz-adv-x="1365" vert-adv-y="2457" 
d="M626 319v1046h93v-124q25 -33 137 -167q186 -222 186 -460q0 -191 -116 -332h-58q67 159 67 305q0 107 -43 198q-51 107 -129 144q-18 9 -44 13v-623q0 -125 -58 -207q-39 -54 -98 -89q-71 -41 -154 -41q-87 0 -121 53q-20 33 -20 71q0 74 53 141q43 56 113 80
q44 15 82 15q58 0 110 -23z" />
    <glyph glyph-name="uni266C" unicode="&#x266c;" horiz-adv-x="1365" vert-adv-y="2457" 
d="M399 1202l862 220v-1029q0 -95 -35 -166q-35 -70 -100 -115q-79 -55 -175 -55q-88 0 -121 53q-19 32 -19 71q0 74 52 141q43 55 113 80q43 15 80 15q60 0 111 -24v554l-675 -185v-483q0 -125 -58 -206q-38 -54 -98 -88q-72 -41 -155 -41q-87 0 -120 53q-20 31 -20 70
q0 73 53 139q43 55 113 79q43 15 82 15q56 0 110 -21v923zM492 918l675 185v142l-675 -185v-142z" />
    <glyph glyph-name="uniFB00" unicode="&#xfb00;" horiz-adv-x="1035" vert-adv-y="2457" 
d="M34 755v98h130v415q0 92 9 130q38 155 215 155q71 0 147 -38v-125q-69 59 -138 59q-66 0 -95 -50q-23 -39 -23 -135v-411h422v415q0 92 9 130q38 155 215 155q71 0 148 -38v-125q-70 59 -139 59q-66 0 -95 -50q-23 -39 -23 -135v-411h257v-98h-257v-755h-115v755h-422
v-755h-115v755h-130z" />
    <glyph glyph-name="uniFB01" unicode="&#xfb01;" horiz-adv-x="872" vert-adv-y="2457" 
d="M34 755v98h130v415q0 92 9 130q38 155 215 155q71 0 147 -38v-125q-69 59 -138 59q-66 0 -95 -50q-23 -39 -23 -135v-411h494v-853h-115v755h-379v-755h-115v755h-130zM715 1307q33 0 56 -23q24 -23 24 -57q0 -33 -21 -56q-25 -26 -60 -26q-32 0 -56 24q-25 24 -25 60
q0 32 24 55q25 23 58 23z" />
    <glyph glyph-name="uniFB02" unicode="&#xfb02;" horiz-adv-x="872" vert-adv-y="2457" 
d="M164 0v755h-130v98h130v415q0 92 9 130q38 155 215 155q71 0 147 -38v-125q-69 59 -139 59q-65 0 -94 -50q-23 -39 -23 -135v-411h256v-98h-256v-755h-115zM658 0v1536h115v-1536h-115z" />
    <glyph glyph-name="uniFB03" unicode="&#xfb03;" horiz-adv-x="1454" vert-adv-y="2457" 
d="M34 755v98h130v415q0 92 9 130q38 155 215 155q71 0 147 -38v-125q-69 59 -138 59q-66 0 -95 -50q-23 -39 -23 -135v-411h423v415q0 92 9 130q37 155 215 155q71 0 147 -38v-125q-69 59 -138 59q-66 0 -95 -50q-23 -39 -23 -135v-411h537v-853h-115v755h-422v-755h-115
v755h-423v-755h-115v755h-130zM1297 1307q32 0 56 -23t24 -57q0 -33 -21 -56q-25 -26 -60 -26q-32 0 -56 24q-25 24 -25 60q0 33 24 55q25 23 58 23z" />
    <glyph glyph-name="uniFB04" unicode="&#xfb04;" horiz-adv-x="1454" vert-adv-y="2457" 
d="M34 755v98h130v415q0 92 9 130q38 155 215 155q71 0 147 -38v-125q-69 59 -138 59q-66 0 -95 -50q-23 -39 -23 -135v-411h422v415q0 92 9 130q38 155 215 155q71 0 148 -38v-125q-70 59 -139 59q-66 0 -95 -50q-23 -39 -23 -135v-411h257v-98h-257v-755h-115v755h-422
v-755h-115v755h-130zM1239 0v1536h115v-1536h-115z" />
    <glyph glyph-name="glyph155" horiz-adv-x="512" vert-adv-y="2457" 
 />
    <glyph glyph-name="glyph172" horiz-adv-x="915" vert-adv-y="915" 
 />
    <glyph glyph-name="glyph210" horiz-adv-x="512" vert-adv-y="2457" 
 />
    <glyph glyph-name="glyph477" horiz-adv-x="1198" vert-adv-y="2457" 
d="M130 0v1365h196q128 0 200 -7q207 -21 336 -116q139 -102 210 -265q58 -133 58 -292q0 -250 -140 -435q-157 -207 -394 -238q-96 -12 -198 -12h-268zM253 109h139q125 0 184 9q201 29 320 200q101 146 101 362q0 232 -118 383q-125 161 -369 186q-73 7 -183 7h-74v-1147z
M698 1713h79q-2 -73 -41 -126q-30 -41 -84 -67q-58 -27 -121 -27q-85 0 -154 46q-89 58 -91 174h78q24 -129 167 -129t167 129z" />
    <glyph glyph-name="glyph478" vert-adv-y="2457" 
d="M306 1135l177 271l121 -45l-220 -262z" />
    <glyph glyph-name="glyph479" vert-adv-y="2457" 
d="M306 -366l177 271l121 -46l-220 -262z" />
    <glyph glyph-name="glyph480" vert-adv-y="2457" 
d="M306 -366l177 271l121 -46l-220 -262z" />
    <glyph glyph-name="glyph481" vert-adv-y="2457" 
d="M306 1135l177 271l121 -45l-220 -262z" />
    <glyph glyph-name="glyph482" vert-adv-y="2457" 
d="M397 1174q31 0 52 -21t21 -52q0 -30 -21 -51q-21 -22 -52 -22q-30 0 -52 22q-21 23 -21 54q0 30 22 50t51 20zM630 1173q28 0 48 -18q25 -21 25 -54q0 -28 -18 -49q-21 -25 -54 -25q-29 0 -50 20q-24 23 -24 57q0 28 20 47q22 22 53 22z" />
    <glyph glyph-name="glyph483" vert-adv-y="2457" 
d="M177 1575v93h669v-93h-669z" />
    <glyph glyph-name="glyph484" vert-adv-y="2457" 
d="M760 0h96q-69 -73 -69 -144q0 -62 47 -89q30 -18 63 -18q16 0 39 7v-81q-43 -17 -81 -17q-105 0 -152 78q-21 36 -21 82q0 89 78 182z" />
    <glyph glyph-name="glyph485" vert-adv-y="2457" 
d="M769 -69l-139 -233h-175l209 233h105z" />
    <glyph glyph-name="glyph486" horiz-adv-x="464" vert-adv-y="2457" 
d="M0 637v78h464v-78h-464zM232 1359q105 0 155 -88q41 -73 41 -193q0 -147 -63 -223q-49 -58 -134 -58q-195 0 -195 282q0 139 57 213q50 67 139 67zM233 1298q-118 0 -118 -223q0 -217 116 -217q58 0 86 52q32 60 32 159q0 229 -116 229zM232 554q105 0 155 -88
q41 -73 41 -193q0 -147 -63 -223q-49 -58 -134 -58q-195 0 -195 282q0 139 57 213q50 67 139 67zM233 493q-118 0 -118 -223q0 -217 116 -217q58 0 86 52q32 60 32 159q0 229 -116 229z" />
    <glyph glyph-name="glyph487" vert-adv-y="2457" 
d="M379 1493l-51 30l136 260l95 -52zM652 1493l-51 30l136 260l95 -52z" />
    <glyph glyph-name="glyph488" vert-adv-y="2457" 
d="M267 1546q2 48 18 85q42 98 130 98q23 0 48 -10q21 -8 76 -53q47 -38 77 -38q35 0 54 34q5 11 9 51h79q-1 -77 -38 -127q-39 -53 -107 -53t-129 57q-25 24 -37 32q-13 8 -33 8q-54 0 -66 -84h-81z" />
    <glyph glyph-name="glyph489" vert-adv-y="2457" 
d="M679 1713h79q-1 -73 -40 -126q-31 -41 -84 -67q-58 -27 -121 -27q-85 0 -154 46q-90 58 -92 174h79q24 -129 167 -129q142 0 166 129z" />
    <glyph glyph-name="glyph490" vert-adv-y="2457" 
d="M745 1729l-184 -231h-100l-182 231l55 44l178 -179l181 172z" />
    <glyph glyph-name="glyph491" vert-adv-y="2457" 
d="M279 1543l184 231h100l182 -231l-56 -44l-177 179l-182 -172z" />
    <glyph glyph-name="glyph492" vert-adv-y="2457" 
d="M576 1493l-180 238l96 52l135 -260z" />
    <glyph glyph-name="glyph493" vert-adv-y="2457" 
d="M447 1493l-51 30l136 260l95 -52z" />
    <glyph glyph-name="glyph494" vert-adv-y="2457" 
d="M511 1789q63 0 107 -46q43 -44 43 -106q0 -64 -45 -108q-44 -42 -104 -42q-62 0 -106 44q-44 43 -44 107q0 61 44 106q43 45 105 45zM513 1710q-29 0 -49 -22t-20 -51q0 -30 21 -50t49 -20q27 0 47 19q22 21 22 52q0 30 -20 50q-21 22 -50 22z" />
    <glyph glyph-name="glyph495" vert-adv-y="2457" 
d="M513 1699q27 0 48 -18q25 -21 25 -54q0 -28 -18 -49q-21 -25 -54 -25q-29 0 -50 20q-24 23 -24 57q0 28 20 47q22 22 53 22z" />
    <glyph glyph-name="glyph496" vert-adv-y="2457" 
d="M342 1700q31 0 52 -21t21 -52q0 -30 -21 -51q-21 -22 -52 -22q-30 0 -52 22q-21 23 -21 54q0 30 22 50t51 20zM684 1699q28 0 48 -18q25 -21 25 -54q0 -28 -18 -49q-21 -25 -54 -25q-29 0 -50 20q-24 23 -24 57q0 28 20 47q22 22 53 22z" />
    <glyph glyph-name="glyph497" horiz-adv-x="1476" vert-adv-y="2457" 
d="M260 546v741h-123l41 78h172v-819h-90zM1107 1367l-629 -1365h-109l625 1365h113zM1134 0v741h-123l41 78h172v-819h-90z" />
    <glyph glyph-name="glyph498" horiz-adv-x="288" vert-adv-y="2457" 
d="M9 409l110 294l88 -26l-136 -288z" />
    <glyph glyph-name="glyph499" horiz-adv-x="288" vert-adv-y="2457" 
d="M143 613q26 0 45 -18q20 -20 20 -48q0 -27 -19 -46t-46 -19t-46 19q-20 19 -20 48q0 25 18 44q20 20 48 20z" />
    <glyph glyph-name="glyph500" horiz-adv-x="464" vert-adv-y="2457" 
d="M232 554q105 0 154 -88q41 -73 41 -193q0 -147 -63 -223q-49 -58 -134 -58q-194 0 -194 282q0 139 56 213q51 67 140 67zM233 493q-118 0 -118 -223q0 -217 116 -217q58 0 85 52q32 60 32 159q0 229 -115 229z" />
    <glyph glyph-name="glyph501" horiz-adv-x="464" vert-adv-y="2457" 
d="M138 -16l-64 39l184 203q-17 -2 -35 -2q-90 0 -142 50q-48 46 -48 114q0 73 56 120q55 46 142 46q102 0 158 -59q42 -45 42 -106q0 -79 -88 -177zM231 493q-61 0 -95 -41q-24 -28 -24 -63q0 -52 38 -82q28 -22 81 -22q68 0 96 34q25 30 25 67q0 44 -32 74q-34 33 -89 33z
" />
    <glyph glyph-name="glyph502" horiz-adv-x="464" vert-adv-y="2457" 
d="M337 286q49 -31 64 -61q17 -31 17 -69q0 -74 -48 -116q-55 -48 -137 -48q-80 0 -137 46q-50 40 -50 115q0 57 28 92q15 19 53 41q-61 47 -61 117q0 69 51 110q50 41 117 41q73 0 123 -47q42 -38 42 -106q0 -71 -62 -115zM231 493q-34 0 -58 -22q-28 -25 -28 -67
q0 -45 28 -70q24 -21 60 -21t60 22q27 25 27 66t-23 65q-26 27 -66 27zM232 250q-46 0 -75 -23q-32 -26 -32 -74q0 -45 29 -73q28 -27 75 -27q52 0 82 29q28 28 28 70q0 47 -29 72q-30 26 -78 26z" />
    <glyph glyph-name="glyph503" horiz-adv-x="464" vert-adv-y="2457" 
d="M39 0l300 485h-287v61h414l-340 -546h-87z" />
    <glyph glyph-name="glyph504" horiz-adv-x="464" vert-adv-y="2457" 
d="M317 562l63 -38l-179 -205q30 3 47 3q83 0 140 -57q43 -43 43 -107q0 -77 -59 -124q-54 -42 -139 -42q-93 0 -149 51q-51 46 -51 118q0 56 36 111q13 19 53 66zM232 261q-62 0 -94 -36q-26 -30 -26 -66q0 -52 42 -81q35 -25 80 -25q58 0 92 36q26 29 26 69q0 43 -30 72
q-32 31 -90 31z" />
    <glyph glyph-name="glyph505" horiz-adv-x="464" vert-adv-y="2457" 
d="M30 79l55 40q28 -31 47 -43q32 -23 77 -23q68 0 106 46q26 31 26 75q0 65 -51 97q-38 23 -93 23q-59 0 -138 -41l75 293h277v-61h-214l-36 -135q39 5 59 5q55 0 104 -25q96 -48 96 -155q0 -79 -58 -130q-62 -53 -155 -53q-109 0 -177 87z" />
    <glyph glyph-name="glyph506" horiz-adv-x="464" vert-adv-y="2457" 
d="M26 119l342 478v-417h64v-61h-64v-119h-77v119h-265zM135 180h152v127q0 56 1 94z" />
    <glyph glyph-name="glyph507" horiz-adv-x="464" vert-adv-y="2457" 
d="M36 143h78q7 -90 110 -90q57 0 89 32q25 25 25 63q0 46 -33 76q-27 23 -114 27v61q56 0 84 10q52 19 52 84q0 87 -100 87q-88 0 -98 -85h-78q6 146 175 146q85 0 132 -38q48 -39 48 -107q0 -48 -26 -83q-14 -21 -56 -44q51 -26 69 -52q24 -33 24 -79q0 -84 -65 -127
q-50 -32 -130 -32q-97 0 -149 51q-36 35 -37 100z" />
    <glyph glyph-name="glyph508" horiz-adv-x="464" vert-adv-y="2457" 
d="M36 0l208 238q87 99 87 166q0 40 -29 66q-24 23 -69 23q-78 0 -99 -59q-6 -16 -8 -64h-79q2 72 23 108q47 76 162 76q84 0 133 -44q45 -41 45 -109q0 -84 -87 -183l-136 -157h216v-61h-367z" />
    <glyph glyph-name="glyph509" horiz-adv-x="464" vert-adv-y="2457" 
d="M197 0v485h-97l37 61h137v-546h-77z" />
    <glyph glyph-name="glyph510" horiz-adv-x="464" vert-adv-y="2457" 
d="M232 1359q105 0 154 -88q41 -73 41 -193q0 -147 -63 -223q-49 -58 -134 -58q-194 0 -194 282q0 139 56 213q51 67 140 67zM233 1298q-118 0 -118 -223q0 -217 116 -217q58 0 85 52q32 60 32 159q0 229 -115 229z" />
    <glyph glyph-name="glyph511" horiz-adv-x="464" vert-adv-y="2457" 
d="M138 789l-64 40l184 203q-18 -3 -35 -3q-89 0 -142 50q-48 46 -48 114q0 73 56 120q55 46 142 46q102 0 158 -59q42 -45 42 -106q0 -79 -88 -177zM231 1298q-61 0 -95 -41q-24 -28 -24 -63q0 -52 38 -82q28 -22 81 -22q68 0 96 34q25 30 25 67q0 44 -32 74q-34 33 -89 33
z" />
    <glyph glyph-name="glyph512" horiz-adv-x="464" vert-adv-y="2457" 
d="M337 1091q49 -31 64 -60q17 -32 17 -70q0 -74 -48 -116q-55 -48 -137 -48q-80 0 -137 46q-50 40 -50 115q0 57 28 92q15 19 53 41q-61 47 -61 117q0 69 51 110q50 41 117 41q73 0 123 -47q42 -38 42 -106q0 -71 -62 -115zM231 1298q-34 0 -58 -22q-28 -25 -28 -67
q0 -45 28 -70q24 -21 60 -21t60 22q27 25 27 66t-23 65q-26 27 -66 27zM232 1055q-46 0 -75 -23q-32 -26 -32 -74q0 -45 29 -73q28 -27 75 -27q52 0 82 29q28 28 28 70q0 47 -29 72q-30 26 -78 26z" />
    <glyph glyph-name="glyph513" horiz-adv-x="464" vert-adv-y="2457" 
d="M39 806l300 485h-287v61h414l-340 -546h-87z" />
    <glyph glyph-name="glyph514" horiz-adv-x="464" vert-adv-y="2457" 
d="M317 1367l63 -38l-179 -205q31 4 47 4q82 0 140 -58q43 -42 43 -106q0 -78 -59 -124q-55 -43 -139 -43q-93 0 -149 51q-51 46 -51 118q0 56 36 111q14 20 53 66zM232 1067q-63 0 -94 -36q-26 -30 -26 -66q0 -53 42 -82q35 -25 80 -25q58 0 92 36q26 29 26 69q0 43 -30 73
q-32 31 -90 31z" />
    <glyph glyph-name="glyph515" horiz-adv-x="464" vert-adv-y="2457" 
d="M30 885l55 40q29 -32 47 -44q33 -23 77 -23q68 0 106 45q26 32 26 76q0 64 -51 96q-38 23 -93 23q-59 0 -138 -39l75 293h277v-61h-214l-36 -136q38 5 59 5q55 0 104 -25q96 -49 96 -155q0 -79 -58 -130q-61 -53 -155 -53q-109 0 -177 88z" />
    <glyph glyph-name="glyph516" horiz-adv-x="464" vert-adv-y="2457" 
d="M33 924l342 478v-417h64v-61h-64v-118h-77v118h-265zM142 985h152v127q0 56 1 94z" />
    <glyph glyph-name="glyph517" horiz-adv-x="464" vert-adv-y="2457" 
d="M36 949h78q7 -91 110 -91q57 0 89 33q25 24 25 63q0 46 -33 76q-27 23 -114 27v61q56 0 84 10q52 19 52 83q0 87 -100 87q-88 0 -98 -84h-78q6 145 175 145q85 0 132 -38q48 -39 48 -106q0 -48 -26 -83q-14 -21 -56 -45q51 -25 69 -51q24 -33 24 -79q0 -85 -65 -127
q-50 -33 -130 -33q-97 0 -149 51q-36 35 -37 101z" />
    <glyph glyph-name="glyph518" horiz-adv-x="464" vert-adv-y="2457" 
d="M36 806l208 238q87 99 87 165q0 41 -29 67q-24 22 -69 22q-78 0 -99 -59q-6 -16 -8 -63h-79q2 71 23 107q47 76 162 76q84 0 133 -44q45 -40 45 -108q0 -84 -87 -183l-136 -157h216v-61h-367z" />
    <glyph glyph-name="glyph519" horiz-adv-x="464" vert-adv-y="2457" 
d="M197 806v485h-97l37 61h137v-546h-77z" />
    <glyph glyph-name="glyph520" horiz-adv-x="976" vert-adv-y="2457" 
d="M761 720v133h115v-853h-115v133q-117 -147 -299 -147q-185 0 -300 135q-99 116 -99 298q0 197 114 325q110 123 285 123q183 0 299 -147zM476 764q-155 0 -238 -126q-58 -89 -58 -209q0 -180 104 -270q80 -70 188 -70q124 0 209 85q81 82 81 257q0 152 -72 238
q-80 95 -214 95zM383 1015l-52 31l136 259l96 -52zM628 1015l-51 31l136 259l95 -52z" />
    <glyph glyph-name="glyph521" vert-adv-y="2457" 
d="M397 1700q31 0 52 -21t21 -52q0 -30 -21 -51q-21 -22 -52 -22q-30 0 -52 22q-21 23 -21 54q0 30 22 50t51 20zM630 1699q27 0 48 -18q25 -21 25 -54q0 -28 -18 -49q-21 -25 -54 -25q-29 0 -50 20q-24 23 -24 57q0 28 20 47q22 22 53 22z" />
  </font>
</defs>
</svg>
